<?xml version="1.0" standalone="no"?>
<!DOCTYPE svg PUBLIC "-//W3C//DTD SVG 1.1//EN" "http://www.w3.org/Graphics/SVG/1.1/DTD/svg11.dtd">
<svg xmlns="http://www.w3.org/2000/svg">
<metadata>Copyright (C) 2014 by original authors @ fontello.com</metadata>
<defs>
<font id="fontello" horiz-adv-x="1000" >
<font-face font-family="fontello" font-weight="400" font-stretch="normal" units-per-em="1000" ascent="850" descent="-150" />
<missing-glyph horiz-adv-x="1000" />
<glyph glyph-name="paste" unicode="&#xe800;" d="m0 46v750q0 23 16 38t38 16h607q22 0 38-16t15-38v-183q12-7 20-15l228-228q16-16 27-42t11-50v-374q0-23-16-38t-38-16h-535q-23 0-38 16t-16 38v89h-303q-23 0-38 15t-16 38z m143 679q0-7 5-13t13-5h393q7 0 12 5t5 13v36q0 7-5 12t-12 5h-393q-7 0-13-5t-5-12v-36z m286-804h500v358h-233q-22 0-38 15t-15 38v232h-214v-643z m285 429h167l-167 167v-167z" horiz-adv-x="1000" />
<glyph glyph-name="briefcase" unicode="&#xe801;" d="m0 82v268h375v-89q0-15 11-25t25-11h178q15 0 25 11t11 25v89h375v-268q0-37-26-63t-63-26h-822q-36 0-63 26t-26 63z m0 322v214q0 37 26 63t63 26h197v89q0 23 15 38t38 16h322q22 0 38-16t15-38v-89h197q37 0 63-26t26-63v-215h-1000z m357 303h286v72h-286v-72z m72-428v71h142v-71h-142z" horiz-adv-x="1000" />
<glyph glyph-name="suitcase" unicode="&#xe802;" d="m0 46v465q0 51 37 88t88 37h36v-715h-36q-51 0-88 37t-37 88z m214-125v715h72v89q0 22 15 38t38 16h322q22 0 38-16t15-38v-89h72v-715h-572z m143 715h286v71h-286v-71z m482-715v715h36q51 0 88-37t37-88v-465q0-51-37-88t-88-37h-36z" horiz-adv-x="1000" />
<glyph glyph-name="ellipsis" unicode="&#xe803;" d="m0 332v107q0 23 16 38t38 16h107q22 0 38-16t15-38v-107q0-22-15-38t-38-15h-107q-23 0-38 15t-16 38z m286 0v107q0 23 15 38t38 16h107q23 0 38-16t16-38v-107q0-22-16-38t-38-15h-107q-22 0-38 15t-15 38z m285 0v107q0 23 16 38t38 16h107q22 0 38-16t16-38v-107q0-22-16-38t-38-15h-107q-22 0-38 15t-16 38z" horiz-adv-x="785.7" />
<glyph glyph-name="ellipsis-vert" unicode="&#xe804;" d="m0 46v108q0 22 16 38t38 15h107q22 0 38-15t15-38v-108q0-22-15-37t-38-16h-107q-23 0-38 16t-16 37z m0 286v107q0 23 16 38t38 16h107q22 0 38-16t15-38v-107q0-22-15-38t-38-15h-107q-23 0-38 15t-16 38z m0 286v107q0 22 16 38t38 16h107q22 0 38-16t15-38v-107q0-22-15-38t-38-16h-107q-23 0-38 16t-16 38z" horiz-adv-x="214.3" />
<glyph glyph-name="off" unicode="&#xe805;" d="m0 350q0 102 45 191t126 151q24 18 54 14t46-28q18-23 14-53t-28-47q-54-41-84-101t-30-127q0-58 22-111t62-91 91-61 111-23 110 23 92 61 61 91 22 111q0 68-30 127t-84 101q-24 18-28 47t14 53q17 24 47 28t53-14q81-61 126-151t45-191q0-87-34-166t-91-137-137-92-166-34-167 34-136 92-92 137-34 166z m357 71v358q0 29 21 50t51 21 50-21 21-50v-358q0-29-21-50t-50-21-51 21-21 50z" horiz-adv-x="857.1" />
<glyph glyph-name="road" unicode="&#xe806;" d="m28 34q0 30 14 64l233 583q5 11 15 18t21 8h189q-7 0-13-5t-6-13l-8-107q-1-8 4-13t12-5h93q7 0 12 5t5 13l-9 107q0 7-6 13t-13 5h190q11 0 21-8t14-18l233-583q15-34 15-64 0-41-26-41h-393q7 0 12 5t5 13l-11 143q-1 7-7 12t-12 5h-152q-7 0-13-5t-6-12l-11-143q-1-8 4-13t12-5h-392q-26 0-26 41z m423 260q0-6 5-11t12-4h136q7 0 12 4t4 11v2l-13 179q-1 7-7 13t-12 5h-104q-7 0-13-5t-6-13l-14-179v-2z" horiz-adv-x="1071.4" />
<glyph glyph-name="list-alt" unicode="&#xe807;" d="m0 82v607q0 37 26 63t63 27h822q37 0 63-27t26-63v-607q0-37-26-63t-63-26h-822q-36 0-63 26t-26 63z m71 0q0-7 6-12t12-6h822q7 0 12 6t6 12v464q0 8-6 13t-12 5h-822q-7 0-12-5t-6-13v-464z m72 72v35q0 8 5 13t13 5h35q8 0 13-5t5-13v-35q0-8-5-13t-13-5h-35q-7 0-13 5t-5 13z m0 142v36q0 7 5 13t13 5h35q8 0 13-5t5-13v-36q0-7-5-12t-13-5h-35q-7 0-13 5t-5 12z m0 143v36q0 7 5 13t13 5h35q8 0 13-5t5-13v-36q0-7-5-12t-13-6h-35q-7 0-13 6t-5 12z m143-285v35q0 8 5 13t13 5h535q8 0 13-5t5-13v-35q0-8-5-13t-13-5h-535q-8 0-13 5t-5 13z m0 142v36q0 7 5 13t13 5h535q8 0 13-5t5-13v-36q0-7-5-12t-13-5h-535q-8 0-13 5t-5 12z m0 143v36q0 7 5 13t13 5h535q8 0 13-5t5-13v-36q0-7-5-12t-13-6h-535q-8 0-13 6t-5 12z" horiz-adv-x="1000" />
<glyph glyph-name="qrcode" unicode="&#xe808;" d="m0-7v357h357v-357h-357z m0 428v358h357v-358h-357z m71-356h215v214h-215v-214z m0 428h215v214h-215v-214z m72-357v71h71v-71h-71z m0 428v72h71v-72h-71z m286-571v357h214v-71h71v71h72v-214h-215v71h-71v-214h-71z m0 428v358h357v-358h-357z m71 72h214v214h-214v-214z m71-500v71h72v-71h-72z m0 571v72h72v-72h-72z m143-571v71h72v-71h-72z" horiz-adv-x="785.7" />
<glyph glyph-name="barcode" unicode="&#xe809;" d="m0-7v786h35v-786h-35z m53 0v786h17v-786h-17z m53 0v786h17v-786h-17z m87 0v786h17v-786h-17z m70 0v786h35v-786h-35z m88 0v786h17v-786h-17z m35 0v786h17v-786h-17z m35 0v786h18v-786h-18z m70 0v786h35v-786h-35z m88 0v786h35v-786h-35z m70 0v786h35v-786h-35z m70 0v786h35v-786h-35z m53 0v786h35v-786h-35z m88 0v786h52v-786h-52z m70 0v786h18v-786h-18z m35 0v786h35v-786h-35z" horiz-adv-x="1000" />
<glyph glyph-name="book" unicode="&#xe80a;" d="m6 96q0 2 1 15t3 20q0 5-2 12t-2 11q1 6 5 12t9 13 9 13q13 21 25 51t17 51q2 6 0 17t0 16q2 6 9 15t10 13q12 20 23 51t14 51q1 5-1 17t0 16q2 7 12 17t13 13q10 14 23 47t16 54q0 4-2 14t-1 15q1 4 5 10t10 13 10 11q4 7 9 17t8 20 9 20 11 18 15 13 20 6 26-3l0-1q21 5 28 5h425q41 0 63-32t10-72l-152-506q-20-66-40-86t-72-19h-485q-15 0-21-8-6-9-1-24 14-39 81-39h515q16 0 31 8t19 24l168 550q4 13 3 32 21-8 33-24 22-32 10-72l-154-505q-10-36-42-60t-69-25h-515q-43 0-83 30t-55 74q-14 37-1 70z m269 343q-3-7 1-12t11-6h339q7 0 14 6t10 12l11 36q3 7-1 13t-11 5h-339q-8 0-14-5t-10-13z m46 143q-2-7 1-12t11-6h339q8 0 15 6t9 12l12 36q2 7-2 12t-11 6h-339q-7 0-14-6t-9-12z" horiz-adv-x="928.6" />
<glyph glyph-name="ajust" unicode="&#xe80b;" d="m0 350q0 117 58 215t155 156 216 58 215-58 156-156 57-215-57-215-156-156-215-58-216 58-155 156-58 215z m125 0q0-83 41-152t110-111 153-41v608q-83 0-153-41t-110-111-41-152z" horiz-adv-x="857.1" />
<glyph glyph-name="tint" unicode="&#xe80c;" d="m0 279q0 81 45 153 4 5 35 51t56 84 56 99 46 112q5 17 19 27t29 9 28-9 19-27q16-51 46-112t56-99 56-85 35-50q45-71 45-154 0-118-83-202t-202-83-202 83-84 202z m143-72q0-29 21-50t50-21 51 21 21 50q0 20-11 39-1 0-9 12t-14 21-14 25-12 28q-2 9-12 9t-11-9q-4-13-12-28t-14-25-14-21-9-12q-11-19-11-39z" horiz-adv-x="571.4" />
<glyph glyph-name="check" unicode="&#xe80d;" d="m0 154v464q0 66 47 113t114 48h464q35 0 65-14 9-4 10-13 2-10-5-16l-27-28q-6-5-13-5-2 0-5 1-13 3-25 3h-464q-37 0-63-26t-27-63v-464q0-37 27-63t63-27h464q37 0 63 27t26 63v141q0 8 5 13l36 35q6 6 13 6 3 0 7-2 11-4 11-16v-177q0-67-47-114t-114-47h-464q-67 0-114 47t-47 114z m143 267q0 19 14 32l61 62q14 13 32 13t32-13l147-147 361 361q13 13 31 13t32-13l62-61q13-14 13-32t-13-32l-455-454q-13-14-31-14t-32 14l-240 240q-14 13-14 31z" horiz-adv-x="928.6" />
<glyph glyph-name="check-empty" unicode="&#xe80e;" d="m0 154v464q0 66 47 113t114 48h464q66 0 114-48t47-113v-464q0-67-47-114t-114-47h-464q-67 0-114 47t-47 114z m71 0q0-37 27-63t63-27h464q37 0 63 27t26 63v464q0 37-26 63t-63 26h-464q-37 0-63-26t-27-63v-464z" horiz-adv-x="785.7" />
<glyph glyph-name="circle" unicode="&#xe80f;" d="m0 350q0 117 58 215t155 156 216 58 215-58 156-156 57-215-57-215-156-156-215-58-216 58-155 156-58 215z" horiz-adv-x="857.1" />
<glyph glyph-name="circle-empty" unicode="&#xe810;" d="m0 350q0 117 58 215t155 156 216 58 215-58 156-156 57-215-57-215-156-156-215-58-216 58-155 156-58 215z m125 0q0-83 41-152t110-111 153-41 152 41 110 111 41 152-41 152-110 111-152 41-153-41-110-111-41-152z" horiz-adv-x="857.1" />
<glyph glyph-name="circle-thin" unicode="&#xe811;" d="m0 350q0 117 58 215t155 156 216 58 215-58 156-156 57-215-57-215-156-156-215-58-216 58-155 156-58 215z m71 0q0-73 29-139t76-113 114-77 139-28 138 28 114 77 76 113 29 139-29 139-76 114-114 76-138 28-139-28-114-76-76-114-29-139z" horiz-adv-x="857.1" />
<glyph glyph-name="circle-notch" unicode="&#xe812;" d="m0 350q0 124 56 231t155 177 218 87v-145q-124-25-205-124t-81-226q0-73 28-139t77-114 113-76 139-28 139 28 114 76 76 114 28 139q0 128-81 226t-205 124v145q120-17 218-87t155-177 56-231q0-102-40-194t-106-160-160-106-194-40-194 40-160 106-106 160-40 194z" horiz-adv-x="1000" />
<glyph glyph-name="dot-circled" unicode="&#xe813;" d="m0 350q0 117 58 215t155 156 216 58 215-58 156-156 57-215-57-215-156-156-215-58-216 58-155 156-58 215z m125 0q0-83 41-152t110-111 153-41 152 41 110 111 41 152-41 152-110 111-152 41-153-41-110-111-41-152z m161 0q0 59 42 101t101 42 101-42 41-101-41-101-101-42-101 42-42 101z" horiz-adv-x="857.1" />
<glyph glyph-name="asterisk" unicode="&#xe814;" d="m68 221q8 29 34 43l148 86-148 86q-26 14-34 43t7 55l36 61q15 26 43 33t55-7l148-85v171q0 29 21 50t51 22h71q29 0 50-22t21-50v-171l149 85q26 15 54 7t44-33l35-61q15-26 7-55t-33-43l-148-86 148-86q26-15 33-43t-7-55l-35-61q-15-26-44-33t-54 7l-149 85v-171q0-29-21-50t-50-22h-71q-29 0-51 22t-21 50v171l-148-85q-26-15-55-7t-43 33l-36 61q-14 26-7 55z" horiz-adv-x="928.6" />
<glyph glyph-name="gift" unicode="&#xe815;" d="m0 296v179q0 8 5 13t13 5h245q-51 0-88 36t-37 89 37 88 88 37q60 0 94-43l72-92 71 92q34 43 94 43 52 0 88-37t37-88-37-89-88-36h245q8 0 13-5t5-13v-179q0-7-5-12t-13-6h-53v-232q0-22-16-38t-38-15h-607q-22 0-38 15t-16 38v232h-53q-8 0-13 6t-5 12z m210 322q0-22 15-38t38-16h109l-70 90q-15 17-39 17-22 0-38-15t-15-38z m129-525q0-14 10-21t26-8h107q16 0 26 8t10 21v400h-179v-400z m147 471h108q22 0 38 16t15 38-15 38-38 15q-24 0-39-17z" horiz-adv-x="857.1" />
<glyph glyph-name="fire" unicode="&#xe816;" d="m0-96q0 7 5 12t13 5h750q7 0 12-5t6-12v-36q0-7-6-13t-12-5h-750q-7 0-13 5t-5 13v36z m143 446q0 44 14 80t35 63 49 49 54 43 48 41 36 45 14 54q0 52-37 125l2-1-1 1q50-23 89-46t78-56 63-68 41-84 15-103q0-44-14-80t-36-63-48-49-54-44-49-40-35-45-14-54q0-54 37-125l-2 0 1 0q-51 23-90 46t-77 56-63 68-41 84-15 103z" horiz-adv-x="785.7" />
<glyph glyph-name="magnet" unicode="&#xe817;" d="m0 314v72q0 14 11 25t25 10h214q15 0 25-10t11-25v-72q0-29 13-50t30-32 39-16 36-8 25-1 24 1 36 8 39 16 30 32 13 50v72q0 14 11 25t25 10h214q15 0 26-10t10-25v-72q0-112-55-202t-153-140-220-51-221 51-153 140-55 202z m0 215v214q0 14 11 25t25 11h214q15 0 25-11t11-25v-214q0-15-11-26t-25-10h-214q-15 0-25 10t-11 26z m571 0v214q0 14 11 25t25 11h214q15 0 26-11t10-25v-214q0-15-10-26t-26-10h-214q-14 0-25 10t-11 26z" horiz-adv-x="857.1" />
<glyph glyph-name="chart-bar" unicode="&#xe818;" d="m0 11v678q0 37 26 63t63 27h893q37 0 63-27t26-63v-678q0-37-26-63t-63-27h-893q-36 0-63 27t-26 63z m71 0q0-8 6-13t12-5h893q7 0 13 5t5 13v678q0 8-5 13t-13 5h-893q-7 0-12-5t-6-13v-678z m72 53v215h143v-215h-143z m214 0v500h143v-500h-143z m214 0v357h143v-357h-143z m215 0v572h143v-572h-143z" horiz-adv-x="1071.4" />
<glyph glyph-name="ticket" unicode="&#xe819;" d="m30 243q0 30 21 51l506 505q21 21 50 21t51-21l70-70q-32-31-32-75t32-76 76-32 75 32l71-70q20-21 20-51t-20-50l-506-507q-21-20-51-20t-50 20l-71 71q32 31 32 75t-32 76-76 32-75-32l-70 71q-21 20-21 50z m161 36q0-15 10-26l202-202q11-10 26-10t25 10l345 345q10 11 10 25t-10 26l-202 202q-10 10-26 10t-25-10l-345-345q-10-11-10-25z m61 0l319 319 177-177-319-319z" horiz-adv-x="1000" />
<glyph glyph-name="credit-card" unicode="&#xe81a;" d="m0 11v678q0 37 26 63t63 27h893q37 0 63-27t26-63v-678q0-37-26-63t-63-27h-893q-36 0-63 27t-26 63z m71 0q0-8 6-13t12-5h893q7 0 13 5t5 13v339h-929v-339z m0 553h929v125q0 8-5 13t-13 5h-893q-7 0-12-5t-6-13v-125z m72-500v72h143v-72h-143z m214 0v72h214v-72h-214z" horiz-adv-x="1071.4" />
<glyph glyph-name="floppy" unicode="&#xe81b;" d="m0-25v750q0 22 16 38t38 16h517q23 0 50-12t42-26l156-157q16-15 27-42t11-49v-518q0-22-15-38t-38-16h-750q-23 0-38 16t-16 38z m71 18h72v232q0 22 16 38t37 16h465q22 0 38-16t15-38v-232h72v500q0 8-6 21t-11 20l-157 156q-5 6-19 12t-22 5v-232q0-22-15-38t-38-16h-322q-22 0-37 16t-16 38v232h-72v-714z m143 0h429v214h-429v-214z m143 518q0-8 5-13t13-5h107q7 0 13 5t5 13v178q0 8-5 13t-13 5h-107q-7 0-13-5t-5-13v-178z" horiz-adv-x="857.1" />
<glyph glyph-name="megaphone" unicode="&#xe81c;" d="m0 368v107q0 37 26 63t63 26h268q243 0 500 215 29 0 50-22t22-50v-214q29 0 50-21t21-51-21-50-50-21v-214q0-29-22-51t-50-21q-233 194-453 212-32-10-51-37t-17-56 22-51q-11-19-13-37t4-32 18-31 27-28 35-28q-17-32-63-46t-94-7-73 31q-4 13-17 49t-18 53-12 50-9 56 2 55 12 61h-68q-36 0-63 27t-26 63z m429-22q210-23 428-190v532q-220-168-428-191v-151z" horiz-adv-x="1000" />
<glyph glyph-name="hdd" unicode="&#xe81d;" d="m0 82v179q0 14 9 42l110 338q9 29 35 48t56 18h437q30 0 56-18t35-48l110-338q9-28 9-42v-179q0-37-26-63t-63-26h-679q-36 0-63 26t-26 63z m71 0q0-7 6-12t12-6h679q7 0 12 6t6 12v179q0 7-6 12t-12 6h-679q-7 0-12-6t-6-12v-179z m28 268h659l-88 269q-2 7-9 12t-14 5h-437q-7 0-14-5t-9-12z m392-179q0 19 13 32t32 13 31-13 13-32-13-31-31-13-32 13-13 31z m143 0q0 19 13 32t32 13 31-13 13-32-13-31-31-13-32 13-13 31z" horiz-adv-x="857.1" />
<glyph glyph-name="key" unicode="&#xe81e;" d="m0 413q0 89 53 174t138 139 175 53q91 0 148-58t57-148q0-105-73-204l198-198 54 54q-2 2-15 14t-22 21-18 20-9 16q0 10 27 37t37 28q7 0 13-6 3-3 26-25t45-44 49-48 40-44 16-23q0-9-27-36t-37-28q-5 0-16 9t-20 19-22 22-13 14l-54-53 123-123q15-16 15-38 0-23-21-45t-46-22q-22 0-38 16l-374 374q-98-73-204-73-91 0-148 57t-57 148z m107 8q0-44 31-75t76-32 76 32 31 75q0 24-10 47 23-11 46-11 45 0 76 31t31 76-31 76-76 31-76-31-31-76q0-23 11-46-23 11-47 11-44 0-76-32t-31-76z" horiz-adv-x="1000" />
<glyph glyph-name="fork" unicode="&#xe81f;" d="m0 29q0 29 15 53t39 39v458q-25 14-39 39t-15 53q0 45 31 76t76 32 76-32 31-76q0-29-14-53t-39-39v-278q30 15 86 32 30 10 49 17t39 17 33 22 22 29 16 38 5 51q-25 14-39 39t-15 54q0 45 31 76t76 31 76-31 31-76q0-29-14-54t-39-39q-1-160-126-231-38-21-114-45-71-22-94-39t-23-56v-15q24-14 39-39t14-53q0-45-31-76t-76-32-76 32-31 76z m54 0q0-23 15-38t38-16 38 16 16 38-16 38-38 15-38-15-15-38z m0 642q0-22 15-38t38-15 38 15 16 38-16 38-38 16-38-16-15-38z m357-71q0-22 15-38t38-16 38 16 16 38-16 38-38 16-38-16-15-38z" horiz-adv-x="571.4" />
<glyph glyph-name="rocket" unicode="&#xe820;" d="m20 252l125 214q6 8 15 9l211 11q54 64 98 109 105 104 200 144t241 40q7 0 13-6t6-12q0-139-43-241t-141-201q-45-44-109-98l-11-211q-1-9-9-15l-214-125q-4-2-9-2-7 0-13 5l-36 36q-7 7-4 17l47 155-156 156-155-47q-1-1-5-1-7 0-12 5l-36 36q-10 11-3 22z m676 348q0-22 16-38t38-16 38 16 16 38-16 38-38 16-38-16-16-38z" horiz-adv-x="928.6" />
<glyph glyph-name="bug" unicode="&#xe821;" d="m18 314q0 15 11 25t25 11h125v164l-97 97q-11 10-11 25t11 25 25 10 25-10l97-97h471l96 97q11 10 25 10t26-10 10-25-10-25l-97-97v-164h125q15 0 25-11t11-25-11-25-25-10h-125q0-96-37-162l116-117q10-11 10-25t-10-25q-10-11-25-11t-26 11l-110 110q-3-3-8-7t-24-16-36-21-46-16-54-7v500h-71v-500q-29 0-57 7t-49 19-36 22-25 18l-8 8-102-116q-11-12-27-12-13 0-24 9-11 10-11 25t8 26l113 127q-32 63-32 153h-125q-15 0-25 10t-11 25z m268 322q0 74 52 126t126 52 127-52 52-126h-357z" horiz-adv-x="928.6" />
<glyph glyph-name="certificate" unicode="&#xe822;" d="m1 236q-6 23 11 39l77 75-77 75q-17 16-11 39 7 23 29 29l105 27-29 103q-7 23 10 39 16 18 39 11l104-29 27 104q5 23 28 29 23 7 39-11l76-77 75 77q16 17 39 11 23-6 28-29l27-104 104 29q23 7 39-11 17-16 11-39l-30-103 105-27q22-6 29-29 6-23-11-39l-77-75 77-75q17-16 11-39-7-23-29-29l-105-27 30-103q6-23-11-39-16-18-39-11l-104 30-27-105q-5-23-28-30-7-1-11-1-17 0-28 13l-75 77-76-77q-15-17-39-12-23 7-28 30l-27 105-104-30q-23-7-39 11-17 16-10 39l29 103-105 27q-22 6-29 29z" horiz-adv-x="857.1" />
<glyph glyph-name="tasks" unicode="&#xe823;" d="m0 29v142q0 15 11 26t25 10h928q15 0 25-10t11-26v-142q0-15-11-26t-25-10h-928q-15 0-25 10t-11 26z m0 285v143q0 15 11 25t25 11h928q15 0 25-11t11-25v-143q0-14-11-25t-25-10h-928q-15 0-25 10t-11 25z m0 286v143q0 14 11 25t25 11h928q15 0 25-11t11-25v-143q0-15-11-25t-25-11h-928q-15 0-25 11t-11 25z m357-250h572v71h-572v-71z m214-286h358v72h-358v-72z m143 572h215v71h-215v-71z" horiz-adv-x="1000" />
<glyph glyph-name="filter" unicode="&#xe824;" d="m3 685q9 22 33 22h714q23 0 33-22 9-23-8-39l-275-275v-414q0-23-22-33-7-3-14-3-15 0-25 11l-143 143q-10 10-10 25v271l-275 275q-18 16-8 39z" horiz-adv-x="785.7" />
<glyph glyph-name="beaker" unicode="&#xe825;" d="m64-43q-19 35 12 85l281 442v223h-36q-14 0-25 11t-10 25 10 25 25 11h286q15 0 25-11t11-25-11-25-25-11h-36v-223l281-442q31-50 12-85t-78-36h-643q-59 0-79 36z m202 250h397l-152 240-11 17v243h-71v-243l-12-17z" horiz-adv-x="928.6" />
<glyph glyph-name="magic" unicode="&#xe826;" d="m15 82q0 15 10 25l718 718q10 10 25 10t25-10l110-111q10-10 10-25t-10-25l-717-718q-10-10-25-10t-25 10l-111 111q-10 10-10 25z m56 697l55 16 17 55 17-55 54-16-54-17-17-55-17 55z m108-108l109 34 33 109 34-109 109-34-109-33-34-109-33 109z m250 108l54 16 17 55 17-55 54-16-54-17-17-55-17 55z m175-194l60-59 164 163-60 60z m182-164l54 17 17 55 17-55 55-17-55-16-17-55-17 55z" horiz-adv-x="928.6" />
<glyph glyph-name="cab" unicode="&#xe827;" d="m0 82v214q0 52 37 89t88 36h16l58 234q13 53 58 88t100 36h393q55 0 100-36t58-88l59-234h15q52 0 89-36t36-89v-214q0-8-5-13t-13-5h-71v-71q0-45-31-76t-76-31-76 31-31 76v71h-518v-71q0-45-32-76t-75-31-76 31-32 76v71h-53q-8 0-13 5t-5 13z m89 161q0-37 27-63t63-26 63 26 26 63-26 63-63 26-63-26-27-63z m199 178h531l-49 200q-2 4-8 9t-12 6h-393q-5 0-12-6t-7-9z m533-178q0-37 27-63t63-26 63 26 26 63-26 63-63 26-63-26-27-63z" horiz-adv-x="1107.1" />
<glyph glyph-name="taxi" unicode="&#xe828;" d="m0 11v214q0 52 37 88t88 37h16l58 234q13 52 58 88t100 35h72v125q0 8 5 13t12 5h250q8 0 13-5t5-13v-125h36q55 0 100-35t58-88l59-234h15q52 0 89-37t36-88v-214q0-8-5-13t-13-5h-71v-36q0-45-31-76t-76-31-76 31-31 76v36h-518v-36q0-45-32-76t-75-31-76 31-32 76v36h-53q-8 0-13 5t-5 13z m89 160q0-36 27-63t63-26 63 26 26 63-26 64-63 26-63-26-27-64z m199 179h531l-49 199q-2 5-8 10t-12 5h-393q-5 0-12-5t-7-10z m533-179q0-36 27-63t63-26 63 26 26 63-26 64-63 26-63-26-27-64z" horiz-adv-x="1107.1" />
<glyph glyph-name="truck" unicode="&#xe829;" d="m36 100q0 15 10 25t25 11v178q0 5 0 20t0 21 2 19 3 21 8 17 13 17l110 110q11 11 28 18t33 7h89v107q0 15 11 26t25 10h571q15 0 25-10t11-26v-571q0-8-2-15t-8-10-9-6-13-4-13-1-14 0-12 0q0-59-42-101t-101-42-101 42-42 101h-214q0-59-42-101t-101-42-101 42-42 101h-36q-1 0-12 0t-15 0-12 1-13 4-9 6-8 10-2 15z m107 250h214v143h-88q-7 0-12-5l-109-109q-5-5-5-12v-17z m71-286q0-29 22-50t50-21 50 21 21 50-21 51-50 21-50-21-22-51z m500 0q0-29 21-50t51-21 50 21 21 50-21 51-50 21-51-21-21-51z" horiz-adv-x="1000" />
<glyph glyph-name="money" unicode="&#xe82a;" d="m0 29v642q0 15 11 26t25 10h1000q14 0 25-10t10-26v-642q0-15-10-26t-25-10h-1000q-15 0-25 10t-11 26z m71 178q60 0 101-42t42-101h643q0 59 42 101t101 42v286q-59 0-101 42t-42 101h-643q0-59-42-101t-101-42v-286z m286 143q0 39 12 79t33 75 57 56 77 22 77-22 56-56 34-75 11-79-11-79-34-75-56-56-77-22-77 22-57 56-33 75-12 79z m68 84l43-44q24 20 31 31h1v-160h-71v-54h214v54h-72v250h-63z" horiz-adv-x="1071.4" />
<glyph glyph-name="euro" unicode="&#xe82b;" d="m0 280v63q0 7 5 12t13 6h37q-1 31 0 58h-37q-8 0-13 5t-5 13v64q0 7 5 13t13 5h55q37 117 135 188t224 72q57 0 108-13 6-2 11-9 4-6 2-13l-24-89q-2-7-8-11t-13-1l-2 1q-3 0-7 1l-10 2t-12 2-15 2-16 1-16 0q-71 0-126-35t-84-98h261q9 0 14-7 6-7 4-15l-13-63q-3-15-18-15h-273q-1-20 0-58h256q9 0 14-7 5-7 4-15l-14-63q-1-6-6-10t-11-4h-216q27-65 84-104t127-38q10 0 20 1t19 2 16 2 14 3 10 3l7 1 3 2q7 2 14-2 7-4 9-11l19-89q2-7-1-13t-10-8l-3 0q-2-1-6-2t-9-3-12-3-14-3-17-2-18-3-21-2-21 0q-131 0-228 73t-133 196h-53q-7 0-13 5t-5 13z" horiz-adv-x="571.4" />
<glyph glyph-name="pound" unicode="&#xe82c;" d="m0 11v83q0 8 5 13t13 5h54v214h-53q-8 0-13 5t-5 13v73q0 8 5 13t13 5h53v124q0 96 69 158t175 62q104 0 187-70 5-5 6-12t-4-12l-57-71q-5-6-13-7-7-1-13 4-2 3-14 11t-39 18-51 10q-48 0-77-27t-29-68v-120h170q8 0 13-5t5-13v-73q0-7-5-13t-13-5h-170v-212h231v101q0 8 5 13t13 5h90q8 0 13-5t5-13v-204q0-8-5-13t-13-5h-533q-8 0-13 5t-5 13z" horiz-adv-x="571.4" />
<glyph glyph-name="dollar" unicode="&#xe82d;" d="m29 88l58 76q3 5 12 6 9 1 14-5l1-1q63-55 135-70 21-4 42-4 45 0 79 24t35 68q0 16-9 30t-18 23-33 21-37 18-45 18q-21 9-34 14t-34 15-35 17-32 20-29 24-25 27-20 32-11 37-5 44q0 77 55 135t142 75v100q0 7 5 13t13 5h75q8 0 13-5t5-13v-98q32-4 62-13t48-19 36-21 21-16 9-8q9-10 3-21l-46-81q-4-9-12-9-8-2-16 4-1 1-8 6t-21 15-33 18-42 15-47 6q-53 0-87-24t-33-62q0-14 4-27t17-23 22-18 31-18 34-15 39-15q30-11 45-18t43-19 42-24 34-28 30-35 18-43 7-52q0-86-56-147t-144-77v-97q0-8-5-13t-13-5h-75q-7 0-13 5t-5 13v97q-37 5-71 18t-57 25-41 26-26 21-10 10q-9 12-1 23z" horiz-adv-x="571.4" />
<glyph glyph-name="rupee" unicode="&#xe82e;" d="m0 330v71q0 8 5 13t13 5h62q74 0 119 24t57 70h-238q-8 0-13 5t-5 13v57q0 8 5 13t13 5h230q-31 63-149 63h-81q-7 0-13 5t-5 12v75q0 8 5 13t13 5h464q8 0 13-5t5-13v-57q0-8-5-13t-13-5h-130q26-34 36-80h95q8 0 13-5t5-13v-57q0-8-5-13t-13-5h-93q-13-80-72-131t-154-61q93-99 256-299 7-9 2-19-5-10-16-10h-109q-9 0-14 7-171 204-278 318-5 5-5 12z" horiz-adv-x="501.1" />
<glyph glyph-name="yen" unicode="&#xe82f;" d="m2 752q-4 9 0 18 6 9 16 9h108q11 0 16-10l120-238q11-21 32-69 5 13 17 37t15 35l107 234q4 10 16 10h106q10 0 15-8 5-8 1-18l-175-323h120q7 0 13-5t5-13v-58q0-8-5-13t-13-5h-162v-47h162q7 0 13-5t5-13v-57q0-8-5-13t-13-5h-162v-184q0-8-5-13t-12-5h-96q-8 0-13 5t-5 13v184h-161q-7 0-13 5t-5 13v57q0 7 5 13t13 5h161v47h-161q-7 0-13 5t-5 13v58q0 8 5 13t13 5h119z" horiz-adv-x="573.1" />
<glyph glyph-name="rouble" unicode="&#xe830;" d="m0 136v71q0 8 5 13t13 5h125v66h-125q-8 0-13 5t-5 13v83q0 7 5 12t13 6h125v351q0 8 5 13t13 5h301q111 0 182-69t70-175-70-176-182-68h-190v-66h282q7 0 12-5t5-13v-71q0-8-5-13t-12-5h-282v-107q0-8-6-13t-12-5h-93q-8 0-13 5t-5 13v107h-125q-8 0-13 5t-5 13z m272 274h178q60 0 96 34t36 91-36 90-96 35h-178v-250z" horiz-adv-x="714.3" />
<glyph glyph-name="try" unicode="&#xe831;" d="m0 332v72q0 12 13 17l130 40v51l-120-37q-2 0-5 0-6 0-11 3-7 6-7 15v71q0 13 13 18l130 39v140q0 8 5 13t13 5h89q8 0 13-5t5-13v-101l209 64q9 3 16-2t7-15v-71q0-13-13-18l-219-67v-52l209 65q9 3 16-3t7-15v-71q0-13-13-17l-219-68v-272q105 8 177 85t73 183q0 8 5 13t13 5h89q8 0 13-5t5-13q0-107-53-197t-143-143-197-53h-89q-8 0-13 5t-5 13v341l-120-37q-2-1-5-1-6 0-11 4-7 5-7 14z" horiz-adv-x="642.9" />
<glyph glyph-name="won" unicode="&#xe832;" d="m0 368v36q0 7 5 12t13 5h98l-19 72h-79q-8 0-13 5t-5 13v35q0 8 5 13t13 5h61l-50 192q-3 9 3 16 5 7 14 7h77q14 0 17-14l50-201h201l54 201q4 14 17 14h70q14 0 18-14l54-201h204l52 201q3 14 17 14h77q9 0 14-7 6-7 3-16l-51-192h62q8 0 13-5t5-13v-35q0-8-5-13t-13-5h-81l-19-72h100q8 0 13-5t5-12v-36q0-8-5-13t-13-5h-119l-91-344q-4-13-18-13h-88q-14 0-18 13l-92 344h-117l-93-344q-4-13-17-13h-89q-6 0-11 4t-6 9l-89 344h-116q-8 0-13 5t-5 13z m208 125l18-72h126l19 72h-163z m35-143l42-167q1-1 1-2t0-2q0 1 1 2t0 2l45 167h-89z m216 71h77l-19 72h-39z m165 72l19-72h128l19 72h-166z m38-143l46-167q0 0 0-2t1-2q0 1 0 2t0 2l44 167h-91z" horiz-adv-x="1000" />
<glyph glyph-name="bitcoin" unicode="&#xe833;" d="m31-7l18 102h62q27 0 32 28v225h9q-4 0-9 0v160q-7 38-50 38h-62v92l119-1q35 0 54 1v141h86v-138q45 1 68 1v137h86v-141q44-4 78-13t63-25 46-43 20-64q10-102-73-144 65-16 98-58t25-119q-4-40-18-70t-36-49-54-33-68-19-81-9v-142h-86v140q-45 0-68 1v-141h-86v142q-10 0-30 1t-31 0h-112z m260 101q5 0 21 0t27 0 29 1 33 2 32 5 31 8 26 11 22 17 14 22 5 29q0 20-8 35t-21 26-32 17-36 10-42 6-38 1-36 0-27-1v-189z m0 275q3 0 20 0t26 0 27 1 31 3 29 6 27 10 21 15 15 22 5 28q0 19-7 33t-17 23-27 16-31 9-34 5-33 1-30 0-22-1v-171z" horiz-adv-x="714.3" />
<glyph glyph-name="sort" unicode="&#xe834;" d="m0 243q0 14 11 25t25 11h500q14 0 25-11t10-25-10-25l-250-250q-11-11-25-11t-25 11l-250 250q-11 10-11 25z m0 214q0 15 11 25l250 250q10 11 25 11t25-11l250-250q10-10 10-25t-10-25-25-11h-500q-15 0-25 11t-11 25z" horiz-adv-x="571.4" />
<glyph glyph-name="sort-down" unicode="&#xe835;" d="m0 243q0 14 11 25t25 11h500q14 0 25-11t10-25-10-25l-250-250q-11-11-25-11t-25 11l-250 250q-11 10-11 25z" horiz-adv-x="571.4" />
<glyph glyph-name="sort-up" unicode="&#xe836;" d="m0 457q0 15 11 25l250 250q10 11 25 11t25-11l250-250q10-10 10-25t-10-25-25-11h-500q-15 0-25 11t-11 25z" horiz-adv-x="571.4" />
<glyph glyph-name="sort-alt-up" unicode="&#xe837;" d="m19 53q4 11 17 11h107v768q0 8 5 13t13 5h107q8 0 13-5t5-13v-768h107q8 0 13-5t5-13q0-6-6-13l-178-178q-5-5-13-5-6 0-13 5l-178 179q-8 9-4 19z m481-78q0 8 5 13t13 5h464q8 0 13-5t5-13v-107q0-8-5-13t-13-5h-464q-8 0-13 5t-5 13v107z m0 179v107q0 8 5 13t13 5h357q8 0 13-5t5-13v-107q0-8-5-13t-13-5h-357q-8 0-13 5t-5 13z m0 285v107q0 8 5 13t13 5h250q8 0 13-5t5-13v-107q0-8-5-13t-13-5h-250q-8 0-13 5t-5 13z m0 286v107q0 8 5 13t13 5h143q8 0 13-5t5-13v-107q0-8-5-13t-13-5h-143q-8 0-13 5t-5 13z" horiz-adv-x="1000" />
<glyph glyph-name="sort-alt-down" unicode="&#xe838;" d="m19 53q4 11 17 11h107v768q0 8 5 13t13 5h107q8 0 13-5t5-13v-768h107q8 0 13-5t5-13q0-6-6-13l-178-178q-5-5-13-5-6 0-13 5l-178 179q-8 9-4 19z m481-78q0 8 5 13t13 5h143q8 0 13-5t5-13v-107q0-8-5-13t-13-5h-143q-8 0-13 5t-5 13v107z m0 179v107q0 8 5 13t13 5h250q8 0 13-5t5-13v-107q0-8-5-13t-13-5h-250q-8 0-13 5t-5 13z m0 285v107q0 8 5 13t13 5h357q8 0 13-5t5-13v-107q0-8-5-13t-13-5h-357q-8 0-13 5t-5 13z m0 286v107q0 8 5 13t13 5h464q8 0 13-5t5-13v-107q0-8-5-13t-13-5h-464q-8 0-13 5t-5 13z" horiz-adv-x="1000" />
<glyph glyph-name="sort-name-up" unicode="&#xe839;" d="m19 53q4 11 17 11h107v768q0 8 5 13t13 5h107q8 0 13-5t5-13v-768h107q8 0 13-5t5-13q0-6-6-13l-178-178q-5-5-13-5-6 0-13 5l-178 179q-8 9-4 19z m483 368v60h39l128 369h90l129-369h39v-60h-161v60h42l-26 80h-136l-26-80h42v-60h-160z m49-521l206 295q7 10 12 16l6 5v1q-1 0-4 0t-4 0q-6-2-16-2h-130v-64h-67v128h317v-50l-206-296q-4-4-12-14l-6-7v-1l8 1q5 2 16 2h139v66h67v-130h-326v50z m114 722h98l-40 122-6 26q-2 9-2 11h-2l-2-11q0 0-1-10t-5-16z" horiz-adv-x="928.6" />
<glyph glyph-name="sort-name-down" unicode="&#xe83a;" d="m19 53q4 11 17 11h107v768q0 8 5 13t13 5h107q8 0 13-5t5-13v-768h107q8 0 13-5t5-13q0-6-6-13l-178-178q-5-5-13-5-6 0-13 5l-178 179q-8 9-4 19z m483-144h39l128 370h90l129-370h39v-59h-161v59h42l-26 80h-136l-26-80h42v-59h-160v59z m49 512v51l206 295q7 10 12 15l6 5v2q-1 0-4-1t-4 0q-6-2-16-2h-130v-64h-67v128h317v-50l-206-295q-4-5-12-15l-6-6v-1l8 1q5 1 16 1h139v66h67v-130h-326z m114-370h98l-40 122-6 26q-2 9-2 11h-2l-2-11q0-1-1-10t-5-16z" horiz-adv-x="928.6" />
<glyph glyph-name="sort-number-up" unicode="&#xe83b;" d="m19 53q4 11 17 11h107v768q0 8 5 13t13 5h107q8 0 13-5t5-13v-768h107q8 0 13-5t5-13q0-6-6-13l-178-178q-5-5-13-5-6 0-13 5l-178 179q-8 9-4 19z m509 86q0 58 40 99t101 41q69 0 114-53t46-141q0-35-7-68t-23-64-38-53-55-36-71-14q-35 0-60 9-14 4-24 8l22 63q8-4 17-6 21-7 42-7 47 0 75 33t37 81h-1q-11-13-34-21t-47-8q-59 0-97 40t-37 97z m17 608l107 103h68v-365h92v-64h-261v64h93v241q0 4 0 11t1 9v9h-2l-3-7q-5-7-15-17l-35-32z m60-608q0-32 21-53t58-22q28 0 48 15t19 38q0 35-24 65t-58 30q-29 0-46-21t-18-52z" horiz-adv-x="857.1" />
<glyph glyph-name="sort-number-down" unicode="&#xe83c;" d="m19 53q4 11 17 11h107v768q0 8 5 13t13 5h107q8 0 13-5t5-13v-768h107q8 0 13-5t5-13q0-6-6-13l-178-178q-5-5-13-5-6 0-13 5l-178 179q-8 9-4 19z m509 657q0 59 40 99t101 41q69 0 114-53t46-141q0-34-7-67t-23-64-38-53-55-37-71-14q-35 0-60 9-14 5-24 9l22 63q8-4 17-6 21-8 42-8 47 0 75 33t37 81h-1q-11-13-34-20t-47-8q-59 0-97 40t-37 96z m17-535l107 104h68v-365h92v-64h-261v64h93v241q0 4 0 10t1 10v9h-2l-3-7q-5-7-15-17l-35-33z m60 535q0-32 21-53t58-21q28 0 48 15t19 38q0 35-24 64t-58 30q-29 0-46-21t-18-52z" horiz-adv-x="857.1" />
<glyph glyph-name="hammer" unicode="&#xe83d;" d="m22 404q0 7 3 14t5 12 9 13 9 10 11 11 10 9q17 15 38 15 6 0 10 0t9-4 8-3 8-5 6-6 7-7 7-7q-8 8-8 19t8 19l194 194q8 8 19 8t19-8q-1 1-7 7t-7 7-6 7-5 7-3 8-4 9 0 10q0 21 15 38 2 1 9 10t11 11 10 9 13 9 12 5 14 3q23 0 38-16l228-228q16-15 16-38 0-7-3-14t-5-12-9-13-9-10-11-11-10-9q-17-15-38-15-6 0-10 0t-9 4-8 3-7 5-7 6-7 7-7 7q8-8 8-19t-8-19l-70-70 143-143q24 24 53 24 29 0 51-21l203-202q20-22 20-51 0-30-20-50l-60-61q-22-20-51-20-29 0-50 20l-203 204q-21 20-21 50 0 29 24 53l-143 143-70-70q-8-8-19-8t-19 8q1-1 7-7t7-7 6-7 5-7 4-8 3-9 0-10q0-21-15-38-2-1-9-10t-11-11-10-9-13-9-12-5-14-3q-23 0-38 16l-228 228q-16 15-16 38z" horiz-adv-x="1000" />
<glyph glyph-name="gauge" unicode="&#xe83e;" d="m0 207q0 102 40 194t106 160 160 107 194 39 194-39 160-107 106-160 40-194q0-145-79-269-10-17-30-17h-782q-20 0-30 17-79 123-79 269z m71 0q0-29 21-50t51-21 50 21 21 50-21 51-50 21-51-21-21-51z m108 250q0-29 21-50t50-21 51 21 20 50-20 51-51 21-50-21-21-51z m217-330q-11-43 11-81t66-50 81 11 50 66q9 33-4 65t-40 51l57 213q3 14-5 27t-21 16-27-3-17-22l-56-213q-33-3-60-25t-35-55z m33 437q0-29 21-50t50-21 51 21 20 50-20 51-51 21-50-21-21-51z m250-107q0-29 21-50t50-21 51 21 20 50-20 51-51 21-50-21-21-51z m107-250q0-29 21-50t50-21 51 21 21 50-21 51-51 21-50-21-21-51z" horiz-adv-x="1000" />
<glyph glyph-name="sitemap" unicode="&#xe83f;" d="m0-25v179q0 22 16 38t38 15h53v107q0 29 21 51t51 21h285v107h-53q-23 0-38 15t-16 38v179q0 22 16 38t38 16h178q23 0 38-16t16-38v-179q0-22-16-38t-38-15h-53v-107h285q29 0 51-21t21-51v-107h53q23 0 38-15t16-38v-179q0-22-16-38t-38-16h-178q-22 0-38 16t-16 38v179q0 22 16 38t38 15h53v107h-285v-107h53q23 0 38-15t16-38v-179q0-22-16-38t-38-16h-178q-23 0-38 16t-16 38v179q0 22 16 38t38 15h53v107h-285v-107h53q22 0 38-15t16-38v-179q0-22-16-38t-38-16h-178q-23 0-38 16t-16 38z" horiz-adv-x="1000" />
<glyph glyph-name="spinner" unicode="&#xe840;" d="m0 350q0 37 26 63t63 26 63-26 27-63-27-63-63-26-63 26-26 63z m98 250q0 41 29 69t69 29 70-29 29-69-29-69-70-29-69 29-29 69z m18-500q0 34 24 57t56 23q33 0 57-23t24-57-24-57-57-23q-33 0-56 23t-24 57z m223 607q0 45 32 76t75 31 76-31 32-76-32-76-76-31-75 31-32 76z m36-714q0 29 21 50t50 21 51-21 21-50-21-51-51-21-50 21-21 51z m259 107q0 26 18 44t44 19 45-19 18-44-18-44-45-18-44 18-18 44z m18 500q0 18 13 32t31 13 32-13 13-32-13-32-32-13-31 13-13 32z m98-250q0 22 16 38t38 16 38-16 15-38-15-38-38-16-38 16-16 38z" horiz-adv-x="875" />
<glyph glyph-name="coffee" unicode="&#xe841;" d="m0 64h1000q0-59-42-101t-101-42h-714q-59 0-101 42t-42 101z m143 197v410q0 15 11 26t25 10h642q89 0 152-63t63-151-63-152-152-62h-35v-18q0-52-37-88t-88-37h-393q-51 0-88 37t-37 88z m643 125h35q45 0 76 31t32 76-32 76-76 31h-35v-214z" horiz-adv-x="1071.4" />
<glyph glyph-name="food" unicode="&#xe842;" d="m0 457v357q0 15 11 25t25 11 25-11 10-25v-232q0-14 11-25t25-11 25 11 11 25v232q0 15 11 25t25 11 25-11 10-25v-232q0-14 11-25t25-11 25 11 11 25v232q0 15 10 25t25 11 26-11 10-25v-357q0-34-20-62t-51-39v-435q0-29-21-50t-51-21h-71q-29 0-50 21t-22 50v435q-31 11-51 39t-20 62z m429-232v446q0 74 52 127t126 52h143q15 0 25-11t11-25v-893q0-29-21-50t-51-21h-71q-29 0-50 21t-22 50v286h-125q-7 0-12 5t-5 13z" horiz-adv-x="785.7" />
<glyph glyph-name="beer" unicode="&#xe843;" d="m36 636l18 71h267l18 72h536l18-108-36-17v-447l72-107v-107h-643v107l71 107h-71q-89 0-152 63t-63 151v179z m178-215q0-29 21-50t51-21h71v214h-143v-143z" horiz-adv-x="928.6" />
<glyph glyph-name="user-md" unicode="&#xe844;" d="m0 66q0 38 3 73t14 77 26 74 45 58 67 33q-12-29-12-67v-113q-32-11-52-39t-20-62q0-45 32-76t76-31 75 31 32 76q0 34-20 62t-52 39v113q0 35 14 52 74-58 165-58t164 58q14-17 14-52v-35q-59 0-101-42t-41-101v-50q-18-16-18-40 0-22 15-37t38-16 38 16 16 37q0 24-18 40v50q0 29 21 50t50 21 51-21 21-50v-50q-18-16-18-40 0-22 16-37t38-16 38 16 15 37q0 24-18 40v50q0 38-19 71t-52 52q0 6 0 24t0 27-1 23-4 26-7 22q38-8 67-33t45-58 26-74 14-77 3-73q0-68-41-106t-108-39h-488q-67 0-108 39t-41 106z m143 34q0 15 11 25t25 11 25-11 10-25-10-25-25-11-26 11-10 25z m36 464q0 89 62 152t152 63 151-63 63-152-63-151-151-63-152 63-62 151z" horiz-adv-x="785.7" />
<glyph glyph-name="stethoscope" unicode="&#xe845;" d="m0 421v286q0 15 11 25t25 11q3 0 9-1 9 16 26 27t36 10q30 0 51-21t21-51-21-50-51-21q-18 0-36 10v-225q0-59 53-101t126-41 126 41 53 101v225q-18-10-36-10-30 0-51 21t-21 50 21 51 51 21q19 0 36-10t26-27q6 1 9 1 15 0 25-11t11-25v-286q0-80-61-140t-153-72v-73q0-59 52-101t126-42 126 42 53 101v220q-32 12-52 39t-20 62q0 45 32 76t76 31 75-31 32-76q0-34-20-62t-52-39v-220q0-89-73-152t-177-63-176 63-74 152v73q-91 12-153 72t-61 140z m643 36q0-14 10-25t26-11 25 11 10 25-10 25-25 11-26-11-10-25z" horiz-adv-x="785.7" />
<glyph glyph-name="ambulance" unicode="&#xe846;" d="m36 100q0 15 10 25t25 11v232q0 14 8 32t18 29l110 110q11 11 29 18t32 7h89v179q0 14 11 25t25 11h643q14 0 25-11t10-25v-643q0-14-10-25t-25-11h-107q0-59-42-101t-101-42-101 42-42 101h-214q0-59-42-101t-101-42-101 42-42 101h-72q-14 0-25 11t-10 25z m107 250h214v143h-88q-8-1-12-5l-109-109q-4-7-5-12v-17z m71-286q0-29 21-50t51-21 50 21 21 50-21 51-50 21-51-21-21-51z m286 375q0-8 5-13t13-5h125v-125q0-7 5-12t13-5h107q8 0 13 5t5 12v125h125q8 0 13 5t5 13v107q0 8-5 13t-13 5h-125v125q0 8-5 13t-13 5h-107q-8 0-13-5t-5-13v-125h-125q-8 0-13-5t-5-13v-107z m214-375q0-29 21-50t51-21 50 21 21 50-21 51-50 21-51-21-21-51z" horiz-adv-x="1071.4" />
<glyph glyph-name="medkit" unicode="&#xe847;" d="m0 46v465q0 51 37 88t88 37h18v-715h-18q-51 0-88 37t-37 88z m196-125v715h90v89q0 22 15 38t38 16h322q22 0 38-16t15-38v-89h90v-715h-608z m90 304q0-8 5-13t13-5h125v-125q0-8 5-13t12-5h108q7 0 12 5t5 13v125h125q8 0 13 5t5 13v107q0 8-5 13t-13 5h-125v125q0 8-5 13t-12 5h-108q-7 0-12-5t-5-13v-125h-125q-8 0-13-5t-5-13v-107z m71 411h286v71h-286v-71z m500-715v715h18q51 0 88-37t37-88v-465q0-51-37-88t-88-37h-18z" horiz-adv-x="1000" />
<glyph glyph-name="h-sigh" unicode="&#xe848;" d="m0 82v536q0 66 47 113t114 48h535q67 0 114-48t47-113v-536q0-66-47-113t-114-48h-535q-67 0-114 48t-47 113z m143 18q0-14 11-25t25-11h71q15 0 25 11t11 25v179h285v-179q0-14 11-25t25-11h72q14 0 25 11t10 25v500q0 15-10 25t-25 11h-72q-14 0-25-11t-11-25v-179h-285v179q0 15-11 25t-25 11h-71q-15 0-25-11t-11-25v-500z" horiz-adv-x="857.1" />
<glyph glyph-name="hospital" unicode="&#xe849;" d="m0-114v714q0 15 11 25t25 11h178v160q0 23 16 38t38 16h250q22 0 38-16t15-38v-160h179q15 0 25-11t11-25v-714q0-15-11-25t-25-11h-714q-15 0-25 11t-11 25z m71 35h215v125q0 8 5 13t13 5h178q7 0 13-5t5-13v-125h214v643h-143v-18q0-22-15-38t-38-15h-250q-22 0-38 15t-16 38v18h-143v-643z m72 161v36q0 7 5 12t13 6h35q8 0 13-6t5-12v-36q0-7-5-12t-13-6h-35q-7 0-13 6t-5 12z m0 143v36q0 7 5 12t13 6h35q8 0 13-6t5-12v-36q0-7-5-13t-13-5h-35q-7 0-13 5t-5 13z m0 143v36q0 7 5 12t13 5h35q8 0 13-5t5-12v-36q0-7-5-13t-13-5h-35q-7 0-13 5t-5 13z m143-143v36q0 7 5 12t13 6h35q8 0 13-6t5-12v-36q0-7-5-13t-13-5h-35q-8 0-13 5t-5 13z m0 143v36q0 7 5 12t13 5h35q8 0 13-5t5-12v-36q0-7-5-13t-13-5h-35q-8 0-13 5t-5 13z m0 214q0-7 5-12t13-6h35q8 0 13 6t5 12v54h72v-54q0-7 5-12t12-6h36q7 0 13 6t5 12v179q0 7-5 12t-13 6h-36q-7 0-12-6t-5-12v-54h-72v54q0 7-5 12t-13 6h-35q-8 0-13-6t-5-12v-179z m143-357v36q0 7 5 12t12 6h36q7 0 13-6t5-12v-36q0-7-5-13t-13-5h-36q-7 0-12 5t-5 13z m0 143v36q0 7 5 12t12 5h36q7 0 13-5t5-12v-36q0-7-5-13t-13-5h-36q-7 0-12 5t-5 13z m142-286v36q0 7 6 12t12 6h36q7 0 13-6t5-12v-36q0-7-5-12t-13-6h-36q-7 0-12 6t-6 12z m0 143v36q0 7 6 12t12 6h36q7 0 13-6t5-12v-36q0-7-5-13t-13-5h-36q-7 0-12 5t-6 13z m0 143v36q0 7 6 12t12 5h36q7 0 13-5t5-12v-36q0-7-5-13t-13-5h-36q-7 0-12 5t-6 13z" horiz-adv-x="785.7" />
<glyph glyph-name="building" unicode="&#xe84a;" d="m0-114v928q0 15 11 25t25 11h714q15 0 25-11t11-25v-928q0-15-11-25t-25-11h-714q-15 0-25 11t-11 25z m71 35h215v125q0 8 5 13t13 5h178q7 0 13-5t5-13v-125h214v858h-643v-858z m72 161v36q0 7 5 12t13 6h35q8 0 13-6t5-12v-36q0-7-5-12t-13-6h-35q-7 0-13 6t-5 12z m0 143v36q0 7 5 12t13 6h35q8 0 13-6t5-12v-36q0-7-5-13t-13-5h-35q-7 0-13 5t-5 13z m0 143v36q0 7 5 12t13 5h35q8 0 13-5t5-12v-36q0-7-5-13t-13-5h-35q-7 0-13 5t-5 13z m0 143v35q0 8 5 13t13 5h35q8 0 13-5t5-13v-35q0-8-5-13t-13-5h-35q-7 0-13 5t-5 13z m0 143v35q0 8 5 13t13 5h35q8 0 13-5t5-13v-35q0-8-5-13t-13-5h-35q-7 0-13 5t-5 13z m143-429v36q0 7 5 12t13 6h35q8 0 13-6t5-12v-36q0-7-5-13t-13-5h-35q-8 0-13 5t-5 13z m0 143v36q0 7 5 12t13 5h35q8 0 13-5t5-12v-36q0-7-5-13t-13-5h-35q-8 0-13 5t-5 13z m0 143v35q0 8 5 13t13 5h35q8 0 13-5t5-13v-35q0-8-5-13t-13-5h-35q-8 0-13 5t-5 13z m0 143v35q0 8 5 13t13 5h35q8 0 13-5t5-13v-35q0-8-5-13t-13-5h-35q-8 0-13 5t-5 13z m143-429v36q0 7 5 12t12 6h36q7 0 13-6t5-12v-36q0-7-5-13t-13-5h-36q-7 0-12 5t-5 13z m0 143v36q0 7 5 12t12 5h36q7 0 13-5t5-12v-36q0-7-5-13t-13-5h-36q-7 0-12 5t-5 13z m0 143v35q0 8 5 13t12 5h36q7 0 13-5t5-13v-35q0-8-5-13t-13-5h-36q-7 0-12 5t-5 13z m0 143v35q0 8 5 13t12 5h36q7 0 13-5t5-13v-35q0-8-5-13t-13-5h-36q-7 0-12 5t-5 13z m142-572v36q0 7 6 12t12 6h36q7 0 13-6t5-12v-36q0-7-5-12t-13-6h-36q-7 0-12 6t-6 12z m0 143v36q0 7 6 12t12 6h36q7 0 13-6t5-12v-36q0-7-5-13t-13-5h-36q-7 0-12 5t-6 13z m0 143v36q0 7 6 12t12 5h36q7 0 13-5t5-12v-36q0-7-5-13t-13-5h-36q-7 0-12 5t-6 13z m0 143v35q0 8 6 13t12 5h36q7 0 13-5t5-13v-35q0-8-5-13t-13-5h-36q-7 0-12 5t-6 13z m0 143v35q0 8 6 13t12 5h36q7 0 13-5t5-13v-35q0-8-5-13t-13-5h-36q-7 0-12 5t-6 13z" horiz-adv-x="785.7" />
<glyph glyph-name="building-filled" unicode="&#xe84b;" d="m0-114v928q0 15 11 25t25 11h714q15 0 25-11t11-25v-928q0-15-11-25t-25-11h-714q-15 0-25 11t-11 25z m143 196q0-8 5-13t13-5h35q8 0 13 5t5 13v36q0 8-5 13t-13 5h-35q-8 0-13-5t-5-13v-36z m0 143q0-8 5-13t13-5h35q8 0 13 5t5 13v36q0 8-5 13t-13 5h-35q-8 0-13-5t-5-13v-36z m0 143q0-8 5-13t13-5h35q8 0 13 5t5 13v36q0 7-5 12t-13 5h-35q-8 0-13-5t-5-12v-36z m0 143q0-8 5-13t13-5h35q8 0 13 5t5 13v35q0 8-5 13t-13 5h-35q-8 0-13-5t-5-13v-35z m0 143q0-8 5-13t13-5h35q8 0 13 5t5 13v35q0 8-5 13t-13 5h-35q-8 0-13-5t-5-13v-35z m143-608v-107q0-8 5-13t13-5h178q8 0 13 5t5 13v107q0 8-5 13t-13 5h-178q-8 0-13-5t-5-13z m0 179q0-8 5-13t13-5h35q8 0 13 5t5 13v36q0 8-5 13t-13 5h-35q-8 0-13-5t-5-13v-36z m0 143q0-8 5-13t13-5h35q8 0 13 5t5 13v36q0 7-5 12t-13 5h-35q-8 0-13-5t-5-12v-36z m0 143q0-8 5-13t13-5h35q8 0 13 5t5 13v35q0 8-5 13t-13 5h-35q-8 0-13-5t-5-13v-35z m0 143q0-8 5-13t13-5h35q8 0 13 5t5 13v35q0 8-5 13t-13 5h-35q-8 0-13-5t-5-13v-35z m143-429q0-8 5-13t12-5h36q8 0 13 5t5 13v36q0 8-5 13t-13 5h-36q-7 0-12-5t-5-13v-36z m0 143q0-8 5-13t12-5h36q8 0 13 5t5 13v36q0 7-5 12t-13 5h-36q-7 0-12-5t-5-12v-36z m0 143q0-8 5-13t12-5h36q8 0 13 5t5 13v35q0 8-5 13t-13 5h-36q-7 0-12-5t-5-13v-35z m0 143q0-8 5-13t12-5h36q8 0 13 5t5 13v35q0 8-5 13t-13 5h-36q-7 0-12-5t-5-13v-35z m142-572q0-8 5-13t13-5h36q8 0 13 5t5 13v36q0 8-5 13t-13 5h-36q-8 0-13-5t-5-13v-36z m0 143q0-8 5-13t13-5h36q8 0 13 5t5 13v36q0 8-5 13t-13 5h-36q-8 0-13-5t-5-13v-36z m0 143q0-8 5-13t13-5h36q8 0 13 5t5 13v36q0 7-5 12t-13 5h-36q-8 0-13-5t-5-12v-36z m0 143q0-8 5-13t13-5h36q8 0 13 5t5 13v35q0 8-5 13t-13 5h-36q-8 0-13-5t-5-13v-35z m0 143q0-8 5-13t13-5h36q8 0 13 5t5 13v35q0 8-5 13t-13 5h-36q-8 0-13-5t-5-13v-35z" horiz-adv-x="857.1" />
<glyph glyph-name="bank" unicode="&#xe84c;" d="m0-79q0 15 11 25t28 11h994q16 0 27-11t11-25v-71h-1071v71z m0 643v72l536 214 535-214v-72h-71q0-14-11-25t-28-10h-851q-16 0-27 10t-12 25h-71z m71-571v36q0 14 12 25t27 10h33v429h143v-429h71v429h143v-429h71v429h143v-429h72v429h143v-429h32q16 0 28-10t11-25v-36h-929z" horiz-adv-x="1142.9" />
<glyph glyph-name="smile" unicode="&#xe84d;" d="m0 350q0 117 58 215t155 156 216 58 215-58 156-156 57-215-57-215-156-156-215-58-216 58-155 156-58 215z m71 0q0-73 29-139t76-113 114-77 139-28 138 28 114 77 76 113 29 139-29 139-76 114-114 76-138 28-139-28-114-76-76-114-29-139z m143 143q0 29 21 50t51 21 50-21 21-50-21-51-50-21-51 21-21 51z m10-243q-4 14 3 27t21 18q14 4 27-2t17-22q14-44 52-72t85-28 84 28 52 72q4 15 18 22t27 2 21-18 2-27q-21-67-77-109t-127-41-128 41-77 109z m276 243q0 29 21 50t50 21 51-21 21-50-21-51-51-21-50 21-21 51z" horiz-adv-x="857.1" />
<glyph glyph-name="frown" unicode="&#xe84e;" d="m0 350q0 117 58 215t155 156 216 58 215-58 156-156 57-215-57-215-156-156-215-58-216 58-155 156-58 215z m71 0q0-73 29-139t76-113 114-77 139-28 138 28 114 77 76 113 29 139-29 139-76 114-114 76-138 28-139-28-114-76-76-114-29-139z m143 143q0 29 21 50t51 21 50-21 21-50-21-51-50-21-51 21-21 51z m10-329q21 68 77 109t128 41 127-41 77-109q4-14-2-27t-21-17-27 2-18 21q-14 45-52 72t-84 28-85-28-52-72q-4-15-17-21t-27-2q-15 4-21 17t-3 27z m276 329q0 29 21 50t50 21 51-21 21-50-21-51-51-21-50 21-21 51z" horiz-adv-x="857.1" />
<glyph glyph-name="meh" unicode="&#xe84f;" d="m0 350q0 117 58 215t155 156 216 58 215-58 156-156 57-215-57-215-156-156-215-58-216 58-155 156-58 215z m71 0q0-73 29-139t76-113 114-77 139-28 138 28 114 77 76 113 29 139-29 139-76 114-114 76-138 28-139-28-114-76-76-114-29-139z m143-107q0 14 11 25t25 11h357q15 0 25-11t11-25-11-25-25-11h-357q-14 0-25 11t-11 25z m0 250q0 29 21 50t51 21 50-21 21-50-21-51-50-21-51 21-21 51z m286 0q0 29 21 50t50 21 51-21 21-50-21-51-51-21-50 21-21 51z" horiz-adv-x="857.1" />
<glyph glyph-name="anchor" unicode="&#xe850;" d="m0-7v196q0 8 5 13t13 5h196q13 0 17-11 5-11-4-20l-56-55q38-51 106-86t152-46v361h-108q-14 0-25 11t-10 25v71q0 15 10 25t25 11h108v91q-33 19-52 51t-20 72q0 59 42 101t101 42 101-42 42-101q0-39-20-72t-52-51v-91h108q14 0 25-11t10-25v-71q0-15-10-25t-25-11h-108v-361q84 11 152 46t106 86l-56 55q-8 9-4 20 4 11 17 11h196q8 0 13-5t5-13v-196q0-12-11-17-5-1-7-1-7 0-13 5l-52 52q-66-80-177-127t-240-46-240 46-177 127l-52-52q-5-5-13-5-2 0-7 1-11 5-11 17z m464 714q0-14 11-25t25-11 25 11 11 25-11 25-25 11-25-11-11-25z" horiz-adv-x="1000" />
<glyph glyph-name="terminal" unicode="&#xe851;" d="m7 82q0 7 6 13l219 219-219 220q-6 5-6 12t6 13l28 28q5 6 13 6t12-6l260-260q6-5 6-13t-6-13l-260-260q-5-5-12-5t-13 5l-28 28q-6 6-6 13z m350-71v35q0 8 5 13t13 5h536q8 0 13-5t5-13v-35q0-8-5-13t-13-5h-536q-8 0-13 5t-5 13z" horiz-adv-x="928.6" />
<glyph glyph-name="eraser" unicode="&#xe852;" d="m1 75q3 21 17 36l500 572q21 24 53 24h429q21 0 39-11t26-31q9-19 6-40t-17-36l-500-572q-22-24-54-24h-429q-21 0-38 11t-27 31q-8 19-5 40z m70-11h429l188 215h-429z" horiz-adv-x="1071.4" />
<glyph glyph-name="puzzle" unicode="&#xe853;" d="m0-7v571q1 0 10-2t19-2 12-2q83-14 136-14 45 0 66 20 25 24 25 49 0 13-8 29t-19 29-18 36-9 46q0 46 33 72t81 25q44 0 74-25t30-69q0-23-9-43t-21-33-22-31-9-40q0-32 23-47t57-14q36 0 101 8t91 9v-1q-1-1-2-9t-3-19-2-12q-13-84-13-137 0-45 19-65 25-26 50-26 12 0 28 8t30 19 36 19 46 8q46 0 71-33t26-80q0-45-25-75t-69-30q-23 0-43 10t-33 21-32 21-39 10q-62 0-62-69 0-22 9-65t8-64v-3q-12 0-18 0-19-2-54-7t-65-7-55-3q-34 0-57 15t-23 47q0 20 9 39t22 32 21 33 9 43q0 44-30 69t-75 25q-47 0-80-26t-33-71q0-24 9-46t18-36 19-30 8-28q0-25-25-50-21-19-66-19-53 0-136 13-5 1-16 2t-15 3l-7 1q-1 0-2 0-1 0-1 1z" horiz-adv-x="928.6" />
<glyph glyph-name="shield" unicode="&#xe854;" d="m0 314v429q0 14 11 25t25 11h643q14 0 25-11t10-25v-429q0-48-18-95t-47-84-66-71-70-57-68-43-50-28-23-11q-7-4-15-4t-14 4q-9 4-24 11t-50 28-68 43-70 57-66 71-46 84-19 95z m357-277q67 35 119 76 131 103 131 201v357h-250v-634z" horiz-adv-x="714.3" />
<glyph glyph-name="extinguisher" unicode="&#xe855;" d="m2 517q-5 14 2 28 3 5 8 14t21 30 34 39 47 38 61 29q-14 23-14 48 0 37 26 63t63 26 63-26 26-63q0-19-7-36h168q0 6 4 11t10 6l250 54q2 1 4 1 7 0 11-4 7-5 7-14v-179q0-9-7-14-4-4-11-4-2 0-4 1l-250 53q-6 2-10 7t-4 11h-143v-57q62-13 103-62t40-113v-447q0-14-11-25t-25-11h-285q-15 0-26 11t-10 25v447q0 59 35 106t90 64v62h-18q-33 0-64-13t-51-30-37-37-23-30-7-14q-10-19-32-19-9 0-16 4-13 6-18 20z m212 226q0-15 11-25t25-11 25 11 11 25-11 25-25 11-25-11-11-25z" horiz-adv-x="785.7" />
<glyph glyph-name="bullseye" unicode="&#xe856;" d="m0 350q0 117 58 215t155 156 216 58 215-58 156-156 57-215-57-215-156-156-215-58-216 58-155 156-58 215z m71 0q0-73 29-139t76-113 114-77 139-28 138 28 114 77 76 113 29 139-29 139-76 114-114 76-138 28-139-28-114-76-76-114-29-139z m72 0q0 118 84 202t202 84 202-84 83-202-83-202-202-84-202 84-84 202z m71 0q0-89 63-151t152-63 151 63 63 151-63 152-151 62-152-62-63-152z m72 0q0 59 42 101t101 42 101-42 41-101-41-101-101-42-101 42-42 101z" horiz-adv-x="857.1" />
<glyph glyph-name="wheelchair" unicode="&#xe857;" d="m0 171q0 101 58 185t154 117l9-73q-68-30-109-92t-41-137q0-103 74-176t176-74q71 0 130 37t92 98 28 132l57-114q-33-100-117-162t-190-62q-87 0-161 43t-117 117-43 161z m232 574q-1 9 4 24 7 28 31 46t54 17q37 0 64-26t26-63q0-39-29-66t-67-23l20-161h236v-72h-227l9-71h254q22 0 32-20l127-254 111 56 32-64-143-71q-7-4-16-4-22 0-32 19l-133 266h-264q-13 0-23 10t-12 22z" horiz-adv-x="928.6" />
<glyph glyph-name="language" unicode="&#xe858;" d="m0-16v601q2 6 2 6 3 3 11 6 60 20 84 28v214l311-110q1 0 90 31t176 60 90 30q11 0 11-12v-233l82-26v-602l-432 137q-8-3-209-71t-205-68q-8 0-10 7 0 1-1 2z m22 17l387 130v576l-387-130v-576z m60 155q3 3 46 52 12 13 48 64t43 66q10 16 29 55t20 43q-5 1-61-18-5-2-16-5t-19-5-10-3q-1-1-1-6t0-5q-3-5-18-8-12-4-26 0-10 2-15 11-3 4-3 13 3 1 13 3t17 3q32 9 59 18 55 20 56 20 6 1 24 11t25 12q5 1 12 4t8 3 3 0q2-7 0-18 0-2-7-16t-15-29-9-19q-14-28-43-73l35-16q7-3 42-18t38-15q2-1 5-15t3-17q-1-1-7 1t-18 6l-11 5q-24 11-48 28-4 2-23 17t-21 16q-38-57-75-101-45-53-59-61-2-1-11-3t-10 0z m68 358l0 1q2-1 11-3t15 0 32 9q20 7 31 8 9 0 12-9 1-9-3-16-6-13-28-21-16-7-33-7-15 2-27 15-8 8-10 22z m23-586q0 5 3 8t7 3q2 0 10-5t17-9 12-6q40-21 89-34t87-14q53 0 94 8t87 28q9 4 17 9t19 11 16 9l-24 41 88-8-30-89-22 37q-73-46-154-60-33-7-51-7h-47q-44 0-111 22t-103 47q-4 4-4 9z m261 787l319-103v212z m60-469l57-18 25 62 118-37 20-75 57-17-101 366-56 18z m104 98l42 104 35-127z" horiz-adv-x="857.1" />
<glyph glyph-name="graduation-cap" unicode="&#xe859;" d="m0 564q0 13 12 18l625 196q3 1 6 1t5-1l625-196q13-5 13-18t-13-17l-625-196q-2-1-5-1t-6 1l-364 115q-24-19-39-63t-19-99q35-20 35-61 0-39-32-60l32-241q1-8-4-14-5-7-14-7h-107q-8 0-13 7-6 6-5 14l33 241q-33 21-33 60 0 41 36 62 7 115 55 184l-186 58q-12 4-12 17z m286-357l10 176 320-101q12-3 27-3t27 3l320 101 10-176q2-38-46-71t-131-52-180-20-180 20-131 52-46 71z" horiz-adv-x="1285.7" />
<glyph glyph-name="paw" unicode="&#xe85a;" d="m0 397q0 45 23 78t67 33q42 0 79-31t56-75 19-85q0-45-23-77t-66-33q-43 0-79 31t-56 74-20 85z m143-393q0 47 31 106t78 108 105 81 107 33q66 0 143-54t127-132 52-142q0-26-10-43t-27-25-36-12-42-3q-38 0-105 25t-102 26q-37 0-107-25t-112-25q-102 0-102 82z m43 638q0 33 10 63t36 52 58 22q43 0 77-33t52-75 16-84q0-34-10-64t-35-51-59-22q-42 0-77 32t-51 76-17 84z m307-55q0 41 17 84t51 75 77 33q34 0 59-22t35-52 11-63q0-41-17-84t-51-76-77-32q-34 0-59 22t-35 51-11 64z m191-270q0 41 20 85t56 75 79 31q43 0 66-33t24-78q0-41-20-85t-56-74-79-31q-43 0-66 33t-24 77z" horiz-adv-x="928.6" />
<glyph glyph-name="spoon" unicode="&#xe85b;" d="m36 555q0 72 23 140t66 111 89 44 90-44 65-111 24-140q0-81-32-136t-85-75l25-458q1-15-9-25t-24-11h-107q-15 0-25 11t-9 25l25 458q-53 20-84 75t-32 136z" horiz-adv-x="428.6" />
<glyph glyph-name="cube" unicode="&#xe85c;" d="m0 136v428q0 23 13 41t34 26l393 143q12 5 24 5t25-5l393-143q21-8 34-26t13-41v-428q0-20-10-37t-28-26l-393-214q-15-9-34-9t-34 9l-393 214q-17 10-27 26t-10 37z m75 429l389-141 390 141-390 142z m425-624l357 195v355l-357-130v-420z" horiz-adv-x="1000" />
<glyph glyph-name="cubes" unicode="&#xe85d;" d="m0 46v233q0 21 12 39t32 26l242 104v223q0 22 12 39t31 27l250 107q13 6 28 6t28-6l250-107q20-9 32-27t12-39v-223l242-104q20-9 32-26t11-40v-232q0-20-10-37t-29-26l-250-125q-14-8-32-8t-32 8l-250 125q-3 1-4 2-1-1-4-2l-250-125q-14-8-32-8t-31 8l-250 125q-19 9-29 26t-11 37z m96 243l225-96 226 96-226 97z m261-350l214 107v176l-214-92v-191z m4 734l246-105 246 105-246 106z m282-317l214 92v149l-214-92v-149z m24-67l226-96 225 96-225 97z m262-350l214 107v176l-214-92v-191z" horiz-adv-x="1285.7" />
<glyph glyph-name="recycle" unicode="&#xe85e;" d="m9 534l242-9 100-212-82 52q-35-41-62-81t-41-70-22-53-10-35l-2-11-106 199q-10 14-10 31t3 26l4 10q20 35 64 105z m142-453q-2 16 2 36t7 31 12 36 11 29q43-6 284-15l-9-206-1-12-234 16q-20 2-38 18t-26 36q-6 15-8 31z m13 539l126 199q11 17 33 25t45 5q13-1 27-6t23-12 23-18 21-20 20-22 17-19q-26-35-147-243l-177 104z m272 223l226 0q18 1 33-6t22-16l6-8q21-34 62-106l79 46-122-208-234 11 84 48q-19 50-42 93t-42 68-36 45-26 26z m96-740l118 202 3-97q95-9 158-3t95 19l31 12-104-200q-7-16-21-26t-24-12l-10-2q-40-4-122-7l4-91z m148 363l174 108 11 6 118-202q10-21 7-43t-15-41q-7-11-19-21t-21-15-27-12-26-9-29-8-25-7q-19 40-148 243z" horiz-adv-x="1000" />
<glyph glyph-name="tree" unicode="&#xe85f;" d="m18 29q0 14 11 25l224 225h-128q-14 0-25 10t-11 25 11 25l224 225h-110q-14 0-25 11t-10 25 10 25l214 214q11 11 26 11t25-11l214-214q11-10 11-25t-11-25-25-11h-110l224-225q11-10 11-25t-11-25-25-11h-128l225-224q10-11 10-25t-10-26-25-10h-258q0-10 3-49t3-61q0-14-10-23t-24-10h-179q-14 0-24 10t-10 23q0 22 3 61t3 49h-257q-15 0-25 10t-11 26z" horiz-adv-x="857.1" />
<glyph glyph-name="database" unicode="&#xe860;" d="m0-7v95q66-47 181-71t248-24 247 24 181 71v-95q0-39-57-72t-157-52-214-19-215 19-156 52-58 72z m0 214v95q66-47 181-71t248-24 247 24 181 71v-95q0-38-57-71t-157-52-214-20-215 20-156 52-58 71z m0 214v95q66-47 181-71t248-24 247 24 181 71v-95q0-38-57-71t-157-52-214-20-215 20-156 52-58 71z m0 215v71q0 39 58 72t156 52 215 19 214-19 157-52 57-72v-71q0-39-57-72t-157-52-214-19-215 19-156 52-58 72z" horiz-adv-x="857.1" />
<glyph glyph-name="lifebuoy" unicode="&#xe861;" d="m0 350q0 102 40 194t106 160 160 106 194 40 194-40 160-106 106-160 40-194-40-194-106-160-160-106-194-40-194 40-160 106-106 160-40 194z m71 0q0-106 51-201l108 108q-16 46-16 93t16 93l-108 108q-51-95-51-201z m215 0q0-89 63-151t151-63 152 63 62 151-62 152-152 62-151-62-63-152z m13-378q95-51 201-51t201 51l-108 108q-46-16-93-16t-93 16z m0 756l108-108q46 16 93 16t93-16l108 108q-95 51-201 51t-201-51z m471-471l108-108q51 95 51 201t-51 201l-108-108q16-46 16-93t-16-93z" horiz-adv-x="1000" />
<glyph glyph-name="rebel" unicode="&#xe862;" d="m11 362q4 121 64 227t171 177h2q0 0 0-1-5-5-16-19t-29-43-33-62-25-75-8-84 22-88 60-86q28-28 57-39t51-6 39 13 26 18l9 9q21 29 29 65t4 68-12 60-15 45l-7 16q-6 14-17 28t-24 22-25 17-19 10l-7 4 58 64q21-9 43-29t33-34l11-15q0 27-11 58t-22 48l-11 18 89 102 90-101q-19-26-30-57t-12-51l-2-18q12 20 34 40t38 30l15 9 58-64q-25-8-48-28t-33-36l-11-17q-17-31-27-74t-4-95 32-87q19-25 43-34t48-3 42 15 32 18l12 9q34 30 54 65t27 67 6 68-10 66-21 60-25 52-26 40-19 27l-7 9q-8 7-4 7l6-1q22-17 34-26t35-28 36-32 32-37 31-43 26-49 21-57 13-65 6-76q2-145-60-260t-174-179-255-64q-103 0-196 41t-158 111-103 163-33 197z" horiz-adv-x="1000" />
<glyph glyph-name="empire" unicode="&#xe863;" d="m0 350q0 102 40 194t106 160 160 106 194 40 194-40 160-106 106-160 40-194-40-194-106-160-160-106-194-40-194 40-160 106-106 160-40 194z m25 0q0-97 37-185t102-151 151-102 185-37 185 37 151 102 102 151 37 185-37 185-102 151-151 102-185 37-185-37-151-102-102-151-37-185z m24 0q0 114 54 215l32-19q-17-31-27-62l45-16q-19-56-19-118 0-61 20-118l-46-16q12-33 27-62l-32-19q-54 101-54 215z m66-236l32 19q17-27 41-55l36 32q83-94 206-119l-10-48q36-7 68-7v-37q-116 3-215 61t-158 154z m1 472q59 96 157 154t215 61v-37q-37-1-68-7l10-48q-123-24-206-118l-36 31q-21-23-41-54z m116-144q18 52 55 94l103-90q33 38 82 48l-27 134q25 5 55 5t55-5l-27-134q49-10 82-48l103 90q37-42 55-94l-130-45q8-23 8-47t-8-48l130-44q-17-51-55-94l-103 90q-32-37-82-47l27-135q-29-6-55-6t-55 6l27 135q-50 10-82 47l-103-90q-38 43-55 94l130 44q-8 24-8 48t8 47z m280-506q32 0 68 7l-10 48q123 25 206 119l36-32q24 28 41 55l32-19q-59-96-158-154t-215-61v37z m0 828v37q117-3 215-61t157-154l-31-18q-20 31-41 54l-36-31q-83 94-206 118l10 48q-31 6-68 7z m334-532q20 57 20 118 0 63-19 118l45 16q-10 31-27 62l32 19q54-101 54-215t-54-215l-32 19q15 29 27 62z" horiz-adv-x="1000" />
<glyph glyph-name="bomb" unicode="&#xe864;" d="m0 243q0 80 31 152t84 126 125 84 153 31q101 0 191-50l36 36q11 10 25 10t26-10l38-38 135 136 26-26-136-135 38-38q10-11 10-26t-10-25l-36-36q50-90 50-191 0-80-31-153t-84-125-126-84-152-31-153 31-125 84-84 125-31 153z m95 93q5-13 19-19 8-3 14-3 23 0 33 23 19 46 55 82t83 55q14 7 20 20t0 27-19 20-28 0q-60-25-106-71t-71-107q-6-14 0-27z m673 478q0 8 5 13 5 5 13 5t13-5l50-51q5-5 5-12t-5-13q-6-5-13-5-7 0-12 5l-51 50q-5 6-5 13z m89-35v53q0 8 5 13t13 5 13-5 5-13v-53q0-8-5-13t-13-5-13 5-5 13z m39-93q0 8 5 13 5 5 13 5t12-5l51-50q5-6 5-13t-5-13q-6-5-13-5t-13 5l-50 51q-5 5-5 12z m0 78q0 7 5 12l50 51q6 5 13 5t13-5q5-5 5-13t-5-13l-51-50q-5-5-12-5-7 0-13 5-5 5-5 13z m15-39q0 8 5 13t13 5h53q8 0 13-5t5-13-5-13-13-5h-53q-8 0-13 5t-5 13z" horiz-adv-x="1000" />
<glyph glyph-name="adn" unicode="&#xe865;" d="m0 350q0 117 58 215t155 156 216 58 215-58 156-156 57-215-57-215-156-156-215-58-216 58-155 156-58 215z m172-143h53l58 89h291l58-89h53l-256 386z m144 125l113 171 112-171h-225z" horiz-adv-x="857.1" />
<glyph glyph-name="android" unicode="&#xe866;" d="m0 181v240q0 23 17 40t41 17q23 0 40-17t16-40v-240q0-24-16-41t-40-17-41 17-17 41z m135 306q0 66 35 121t96 85l-39 73q-4 8 2 11 8 4 12-3l40-74q53 24 112 24t112-24l40 74q4 7 11 3 7-3 3-11l-39-73q59-31 95-85t36-121h-516z m2-391v371h512v-371q0-26-18-44t-43-18h-42v-127q0-24-16-40t-41-17-41 17-17 40v127h-77v-127q0-24-16-40t-41-17q-24 0-40 17t-17 40l-1 127h-41q-26 0-43 18t-18 44z m117 506q0-9 6-15t15-7 15 7 7 15-7 16-15 6-15-6-6-16z m235 0q0-9 6-15t16-7 15 7 6 15-6 16-15 6-16-6-6-16z m182-421v240q0 24 17 40t40 17q24 0 41-17t17-40v-240q0-24-17-41t-41-17q-23 0-40 17t-17 41z" horiz-adv-x="785.7" />
<glyph glyph-name="apple" unicode="&#xe867;" d="m0 347q0 127 63 208 63 81 159 81 40 0 98-17 58-17 77-17 25 0 80 19 57 19 97 19 66 0 119-36 29-20 58-56-45-37-64-66-36-52-36-115 0-70 38-125t88-70q-21-70-68-140-72-109-144-109-27 0-78 18-48 18-84 18-34 0-79-19-46-19-74-19-85 0-168 145-82 146-82 281z m381 277q2 83 44 143 41 60 139 83 1-2 2-6t1-6q0-3 0-6t1-6q0-34-17-75-16-42-52-77-30-31-60-41-20-6-58-9z" horiz-adv-x="785.7" />
<glyph glyph-name="behance" unicode="&#xe868;" d="m0 5v703h332q48 0 86-8t71-26 50-54 17-86q0-101-96-147 64-17 96-64t33-114q0-41-14-76t-37-58-55-39-67-24-75-7h-341z m155 120h165q114 0 114 93 0 100-111 100h-168v-193z m0 299h156q44 0 69 21t26 63q0 80-106 80h-145v-164z m479-165q0 116 73 193t188 77q77 0 134-38t86-100 28-139q0-9-1-26h-367q0-62 32-96t93-33q35 0 68 18t42 48h123q-55-171-238-171-119 0-190 73t-71 194z m112 333h285v69h-285v-69z m29-278h227q-10 109-111 109-51 0-82-29t-34-80z" horiz-adv-x="1142.9" />
<glyph glyph-name="behance-squared" unicode="&#xe869;" d="m0 82v536q0 66 47 113t114 48h535q67 0 114-48t47-113v-536q0-66-47-113t-114-48h-535q-67 0-114 48t-47 113z m71 53h214q65 0 110 32t44 95q0 88-80 111 60 29 60 92 0 32-11 54t-31 34-44 16-55 5h-207v-439z m97 74v121h105q70 0 70-63 0-58-72-58h-103z m0 187v103h91q66 0 66-50 0-53-59-53h-98z m300-103q0-75 44-121t119-46q114 0 149 107h-77q-7-19-27-30t-42-11q-38 0-58 21t-20 59h229q1 6 1 17 0 74-42 123t-113 50q-72 0-118-48t-45-121z m70 208v43h178v-43h-178z m18-173q2 31 22 49t50 19q63 0 70-68h-142z" horiz-adv-x="857.1" />
<glyph glyph-name="bitbucket" unicode="&#xe86a;" d="m0 675q2 14 10 27t17 21 26 17 25 12 27 10q70 26 175 36 211 21 377-28 86-25 120-68 9-11 9-28t-3-30q-15-94-62-366-3-17-15-31t-24-23-31-17q-140-70-340-49-139 15-220 78-8 6-14 14t-10 20-5 19-3 22-3 19q-5 28-15 84t-16 90-13 83-12 88z m97-523l3 9 10 5q124-83 283-83t283 83q12-3 13-13t-3-25-4-21q-5-14-9-42t-8-47-15-39-33-32q-48-27-106-40t-112-12-113 10q-25 5-45 10t-43 15-41 25-29 34q-14 54-31 163z m39 533q16-16 42-26t41-12 49-6q127-16 250-1 35 5 50 7t40 12 42 26q-11 15-31 25t-32 12-40 7q-162 26-316-1-24-4-37-7t-30-12-28-24z m132-325q3-51 44-87t92-31q51 4 85 47t28 93q-8 60-63 92t-110 7q-35-15-56-49t-20-72z m66 29q8 23 29 32 20 10 41 7t35-20 16-37q4-35-28-57t-63-3q-21 9-29 32t-1 46z" horiz-adv-x="785.7" />
<glyph glyph-name="bitbucket-squared" unicode="&#xe86b;" d="m0 82v536q0 66 47 113t114 48h535q67 0 114-48t47-113v-536q0-66-47-113t-114-48h-535q-67 0-114 48t-47 113z m145 502q5-38 11-77t16-95 13-77q1-2 3-17t4-20 7-15 12-16q59-44 158-55 145-16 246 35 13 7 22 13t17 16 11 22q27 149 45 264 5 30-5 42-24 31-86 49-121 35-272 20-74-7-126-26-21-8-33-14t-26-18-17-31z m70-377q14-86 23-117 26-45 114-60 139-26 238 29 19 11 28 29t12 48 7 39q0 4 3 15t2 18-10 9q-90-59-203-59t-205 59l-6-3z m28 385q8 10 20 17t23 8 26 5q110 20 228 1 18-3 28-5t24-9 22-17q-11-12-30-19t-30-9-35-5q-86-11-181 0-24 4-35 5t-29 9-31 19z m96-235q-1 28 14 52t40 36q39 17 79-6t46-66q4-36-20-67t-62-34-66 22-31 63z m45 4q0-29 24-39 22-13 45 2t20 40q0 24-23 37t-43 1q-24-11-23-41z" horiz-adv-x="857.1" />
<glyph glyph-name="codeopen" unicode="&#xe86c;" d="m0 198v304q0 23 19 36l457 305q12 7 24 7t24-7l457-305q19-13 19-36v-304q0-23-19-36l-457-305q-12-7-24-7t-24 7l-457 305q-19 13-19 36z m86 80l108 72-108 72v-144z m35-80l336-225v201l-186 124z m0 304l150-100 186 124v201z m227-152l152-102 152 102-152 102z m195-377l336 225-150 100-186-124v-201z m0 553l186-124 150 100-336 225v-201z m263-176l108-72v144z" horiz-adv-x="1000" />
<glyph glyph-name="css3" unicode="&#xe86d;" d="m7 35l39 198h166l-16-82 235-89 272 89 38 190h-675l33 165h674l22 107h-674l32 166h840l-148-744-449-149z" horiz-adv-x="1000" />
<glyph glyph-name="delicious" unicode="&#xe86e;" d="m0 82v536q0 66 47 113t114 48h535q67 0 114-48t47-113v-536q0-66-47-113t-114-48h-535q-67 0-114 48t-47 113z m36 268h393v-393h267q52 0 89 37t36 88v268h-392v393h-268q-52 0-89-37t-36-88v-268z" horiz-adv-x="857.1" />
<glyph glyph-name="deviantart" unicode="&#xe86f;" d="m0-1v702q0 32 23 55t55 23h702q32 0 55-23t22-55v-702q0-32-22-55t-55-23h-702q-33 0-55 23t-23 55z m40 0q0-16 11-27t27-11h702q15 0 26 11t12 27v702q0 16-12 27t-26 11h-702q-16 0-27-11t-11-27v-702z m28 0v79l396 109-118 244q2 1 7 2t6 1q95 18 170 12t123-26 80-53q15-15-14-23-36-9-143-35l-54 111q-62 4-134-9l105-216 298 81v-277q0-4-3-7t-7-3h-702q-4 0-7 3t-3 7z m0 390v312q0 4 3 7t7 3h702q3 0 7-3t3-7v-239q-48 17-105 29-164 36-360 7l-10-2-37 75h-130l48-106q-74-28-128-76z m69-166q-13 114 93 171l72-151-142-34q-8-2-15 2t-8 12z" horiz-adv-x="857.1" />
<glyph glyph-name="digg" unicode="&#xe870;" d="m0 144v389h183v160h114v-549h-297z m114 92h69v206h-69v-206z m229-92h114v389h-114v-389z m0 435h114v114h-114v-114z m160-572v91h183v46h-183v389h297v-526h-297z m114 229h69v206h-69v-206z m229-229v91h182v46h-182v389h297v-526h-297z m114 229h68v206h-68v-206z" horiz-adv-x="1142.9" />
<glyph glyph-name="dribbble" unicode="&#xe871;" d="m0 350q0 117 58 215t155 156 216 58 215-58 156-156 57-215-57-215-156-156-215-58-216 58-155 156-58 215z m63 0q0-69 24-132t69-112q28 49 69 93t80 69 73 45 55 27l21 7q2 1 7 2t7 3q-12 27-29 62-174-52-376-52 0-4 0-12z m7 75q169 0 339 45-67 119-137 211-77-36-130-104t-72-152z m125-357q103-84 234-84 73 0 142 29-23 134-78 278h-1l-1-1q-9-3-24-9t-56-27-77-46-73-64-57-82z m145 637q0 0 1 0-1 0-1 0z m2 0q73-94 137-213 39 15 73 34t54 34 36 32 21 23l7 9q-103 92-241 92-43 0-87-11z m165-267q14-30 25-53 1-4 3-10t5-9q20 2 41 4t41 1 39-1 35-2 32-3 27-4 20-3 14-3l6-1q-2 129-83 229l-1-1q-5-7-11-14t-24-24-40-34-55-36-74-36z m55-130q49-133 71-262 62 42 104 106t53 140q-117 33-228 16z" horiz-adv-x="857.1" />
<glyph glyph-name="dropbox" unicode="&#xe872;" d="m36 304l188 151 276-170-191-159z m0 302l273 178 191-159-276-170z m191-520v60l82-54 191 159v1l1-1 0 1v-1l192-159 82 54v-60l-274-164v-1l0 1-1-1v1z m273 199l276 170 188-151-273-178z m0 340l191 159 273-178-188-151z" horiz-adv-x="1000" />
<glyph glyph-name="drupal" unicode="&#xe873;" d="m0 283q0 50 11 96t27 82 40 66 43 52 44 39 36 26 24 13q8 5 28 15t31 16 27 17 33 24q20 16 33 41t16 70q72-87 104-108 25-16 73-38t72-37q11-7 22-14t33-26 43-39 42-53 38-68 26-83 11-99q0-91-34-170t-93-131-135-84-163-30-163 32-138 88-95 134-36 169z m186-147q-1-63 41-92 16-11 35-16t58-4q32 0 73 18t75 39 67 40 52 17q15-1 36-18t40-37 38-38 31-18q20-1 33 8t31 35q15 23 23 57t9 59q0 12-3 25t-9 25-19 20-30 8q-18 0-54-23t-72-47-56-23q-15-1-36 11t-42 27-47 32-55 28-62 10q-65 0-110-44t-47-99z m197-186q-1-5 4-11 19-18 49-25t57-7 55 2q23 2 47 12t36 16 16 12q7 6 4 16-3 10-13 3-17-13-49-22t-73-10q-72 0-107 28-3 2-8 2-6 0-14-7-4-3-4-9z m92 60q5-4 10-2t18 13q1 1 6 5t6 4 5 4 7 4 6 3 9 2 9 2 12 0q15 0 24-4t13-8 8-12q5-10 7-11t7 0q12 7 7 19-10 26-21 34-13 9-43 9-26 0-39-6-16-7-44-31-14-14-7-25z" horiz-adv-x="857.1" />
<glyph glyph-name="facebook" unicode="&#xe874;" d="m53 345v165h142v122q0 104 58 161t155 57q82 0 127-7v-147h-87q-48 0-65-20t-17-60v-106h164l-22-165h-142v-424h-171v424h-142z" horiz-adv-x="571.4" />
<glyph glyph-name="facebook-squared" unicode="&#xe875;" d="m0 82v536q0 66 47 113t114 48h535q67 0 114-48t47-113v-536q0-66-47-113t-114-48h-107v340h114l16 125h-130v80q0 30 16 46t53 16l74 1v115q-53 5-100 5-76 0-122-45t-46-126v-92h-125v-125h125v-340h-303q-67 0-114 48t-47 113z" horiz-adv-x="857.1" />
<glyph glyph-name="flickr" unicode="&#xe876;" d="m0 82v536q0 66 47 113t114 48h535q67 0 114-48t47-113v-536q0-66-47-113t-114-48h-535q-67 0-114 48t-47 113z m153 268q0-49 35-84t83-34 84 34 35 84-35 84-84 34-83-34-35-84z m315 0q0-49 34-84t84-34 84 34 34 84-34 84-84 34-84-34-34-84z" horiz-adv-x="857.1" />
<glyph glyph-name="foursquare" unicode="&#xe877;" d="m0 350q0 42 30 71l327 328q30 30 72 30t71-30l148-148-222-223-105 105q-24 24-55 24-33 0-56-23l-67-68q-24-22-24-55 0-32 24-56l226-227q17-16 38-21l3-2h16q33 0 55 23l345 345 2-2q29-29 29-71t-29-72l-328-327q-29-30-71-30t-72 30l-327 327q-30 30-30 72z m169 11q0 12 7 20l68 67q7 8 19 8t21-8l140-141 320 321q9 8 21 8t20-8l67-67q7-8 7-20t-7-20l-408-408q-9-8-20-8-3 0-4 1-10 1-17 7l-227 228q-7 8-7 20z" horiz-adv-x="928.6" />
<glyph glyph-name="git-squared" unicode="&#xe878;" d="m0 82v536q0 66 47 113t114 48h535q67 0 114-48t47-113v-536q0-66-47-113t-114-48h-535q-67 0-114 48t-47 113z m143 33q0-26 11-44t30-29 40-14 46-4q125 0 125 104 0 38-27 56t-71 25q-15 3-28 12t-14 22q0 24 27 29 43 8 68 39t26 75q0 13-6 29 21 5 27 7v70q-43-16-75-16-28 16-61 16-48 0-81-32t-33-80q0-28 16-57t41-37v-2q-21-9-21-47 0-30 23-43v-2q-63-21-63-77z m70 3q0 36 55 36 57 0 57-34 0-37-52-37-60 0-60 35z m7 262q0 50 43 50 21 0 31-14t11-36q0-47-42-47-43 0-43 47z m201 211q0-20 14-35t34-15 33 15 14 35q0 20-14 36t-33 15-34-15-14-36z m9-403h77q-1 15-1 46v216q0 26 1 38h-77q2-12 2-39v-219q0-28-2-42z m109 235q20 2 21 2 1 0 6 0t7-1v-1h-2v-121q0-21 2-36t6-31 14-27 24-18 37-6q36 0 60 13v68q-16-12-38-12-29 0-29 46v125h29q5 0 15 0t14-1v65h-58q0 46 1 57h-78q3-13 3-30v-27h-34v-65z" horiz-adv-x="857.1" />
<glyph glyph-name="git" unicode="&#xe879;" d="m38-3q0 92 102 125v3q-38 22-38 70 0 61 35 76v3q-40 13-66 60t-27 92q0 78 53 130t131 51q54 0 100-26 54 0 121 26v-112q-20-7-44-13 9-24 9-47 0-70-41-120t-110-63q-22-5-33-15t-11-33q0-17 13-28t32-18 44-12 48-15 44-21 32-35 13-55q0-170-203-170-38 0-72 7t-65 23-49 46-18 71z m114 6q0-57 96-57 84 0 84 59 0 56-92 56-88 0-88-58z m12 422q0-75 69-75 66 0 66 76 0 35-17 57t-49 23q-69 0-69-81z m324 343q0 33 22 57t55 25q33 0 54-25t22-57-22-57-54-24q-32 0-54 24t-23 57z m15-652q2 25 2 74v340q0 53-2 72h124q-3-19-3-70v-342q0-49 3-74h-124z m176 380v106h54v42q0 30-4 50h127q-3-23-3-92h95v-106q-8 0-24 1t-24 1h-47v-204q0-73 48-73 34 0 61 19v-110q-40-22-97-22-35 0-60 12t-39 27-22 44-10 51-2 58v196h1v2q-4 0-11 0t-10 1q-12 0-33-3z" horiz-adv-x="1000" />
<glyph glyph-name="github" unicode="&#xe87a;" d="m0 270q0 132 76 221-15 45-15 94 0 65 28 122 61 0 106-22t106-69q82 20 172 20 83 0 156-18 59 46 105 67t105 22q29-57 29-122 0-48-15-93 76-90 76-222 0-116-34-185-22-43-59-74t-79-48-95-27-96-12-93-3q-43 0-79 2t-82 7-85 17-77 28-67 46-48 64q-35 69-35 185z m125-99q0-49 18-85t45-58 68-33 78-17 83-4h94q46 0 83 4t78 17 69 33 45 58 18 85q0 67-39 114t-104 47q-23 0-109-12-40-6-88-6t-87 6q-85 12-109 12-66 0-104-47t-39-114z m89 0q0 23 7 46t24 43 41 19 40-19 24-43 7-46-7-45-24-43-40-19-41 19-24 43-7 45z m357 0q0 23 7 46t24 43 41 19 40-19 24-43 7-46-7-45-24-43-40-19-41 19-24 43-7 45z" horiz-adv-x="928.6" />
<glyph glyph-name="github-squared" unicode="&#xe87b;" d="m0 82v536q0 66 47 113t114 48h535q67 0 114-48t47-113v-536q0-66-47-113t-114-48h-125q-8 0-13 1t-11 3-9 8-3 15v134q0 54-29 79 32 3 57 10t53 22 45 37 30 58 11 84q0 68-44 115 21 51-5 114-15 5-45-6t-51-25l-21-13q-52 15-107 15t-108-15q-8 6-23 15t-47 22-48 7q-24-63-4-114-44-47-44-115 0-47 12-83t29-59 45-37 52-22 57-10q-22-20-27-58-12-5-25-8t-32-3-36 12-31 35q-11 18-27 29t-28 14l-11 1q-12 0-16-2t-3-7 5-8 7-6l4-3q12-6 24-21t18-29l5-13q8-21 25-34t37-17 39-4 31 2l13 3q0-22 0-58t1-38q0-12-7-18t-12-8-18-1h-125q-67 0-114 48t-47 113z m151 87q2 2 8 1 5-3 3-7-2-4-7-1-5 3-4 7z m19-14q3 3 9-2 5-6 1-9-4-4-9 2-5 6-1 9z m17-32q-5 7 0 10 5 4 9-3 5-7 0-11-4-3-9 4z m20-15q4 5 11-2 6-6 2-10-5-5-11 1-8 6-2 11z m27-21q2 6 10 4 9-3 8-9-3-7-11-4-9 3-7 9z m34-8q0 6 9 6 10 1 10-6 0-6-9-6-10-1-10 6z m33 2q-1 7 8 8 9 2 10-5 1-5-8-7t-10 4z" horiz-adv-x="857.1" />
<glyph glyph-name="github-circled" unicode="&#xe87c;" d="m0 350q0 117 58 215t155 156 216 58 215-58 156-156 57-215q0-140-82-252t-211-155q-15-3-22 4t-7 17v118q0 54-29 79 32 3 57 10t53 22 45 37 30 58 11 84q0 68-44 115 21 51-5 114-15 5-45-6t-51-25l-21-13q-52 15-107 15t-108-15q-8 6-23 15t-47 22-48 7q-24-63-4-114-44-47-44-115 0-47 12-83t29-59 45-37 52-22 57-10q-22-20-27-58-12-5-25-8t-32-3-36 12-31 35q-11 18-27 29t-28 14l-11 1q-12 0-16-2t-3-7 5-8 7-6l4-3q12-6 24-21t18-29l5-13q8-21 25-34t37-17 39-4 31 2l13 3q0-22 0-50t1-30q0-10-8-17t-22-4q-129 43-211 155t-82 252z" horiz-adv-x="857.1" />
<glyph glyph-name="gittip" unicode="&#xe87d;" d="m0 350q0 117 58 215t155 156 216 58 215-58 156-156 57-215-57-215-156-156-215-58-216 58-155 156-58 215z m223 70q5-20 14-33l194-264 196 264q9 13 13 33t-3 48-34 44q-23 14-47 14t-41-10-30-25q-20-22-54-22-33 0-53 22-13 16-30 25t-41 10-47-14q-26-17-34-44t-3-48z" horiz-adv-x="857.1" />
<glyph glyph-name="google" unicode="&#xe87e;" d="m62 94q0 46 25 84t66 64q73 46 225 56-17 23-26 41t-9 41q0 22 12 48-26-3-38-3-83 0-139 54t-57 137q0 45 20 88t55 73q43 37 102 55t122 18h232l-76-49h-74q42-35 63-74t22-90q0-40-14-72t-33-52-39-36-33-34-14-37q0-20 18-40t43-37 51-41 43-59 18-79q0-51-28-96-39-68-117-100t-166-33q-74 0-138 24t-96 76q-20 33-20 73z m104 26q0-31 13-57t34-42 48-28 56-16 57-5q32 0 62 7t55 22 41 41 15 61q0 14-3 27t-9 24-15 23-16 19-22 20-20 16-23 16-20 15q-9 1-28 1-29 0-58-4t-60-14-54-25-38-42-15-59z m59 555q0-26 6-55t17-57 29-52 42-37 54-15q20 0 43 9t37 25q29 31 29 89 0 33-9 70t-27 72-47 57-65 23q-24 0-46-11t-37-29q-26-33-26-89z" horiz-adv-x="714.3" />
<glyph glyph-name="gplus" unicode="&#xe87f;" d="m18 94q0 46 25 84t66 64q73 46 225 56-18 24-26 41t-9 41q0 20 12 48-26-3-38-3-83 0-139 54t-57 137q0 45 20 88t55 73q43 37 102 55t122 18h233l-77-49h-73q41-35 62-74t21-90q0-40-13-72t-33-52-39-36-33-34-14-37q0-20 18-40t43-37 51-41 43-59 18-79q0-50-27-96-40-68-118-100t-166-33q-74 0-138 24t-95 76q-21 34-21 73z m104 26q0-39 19-69t51-46 67-25 71-8q32 0 62 7t55 22 41 41 15 61q0 14-4 27t-8 24-15 23-16 19-22 20-20 16-23 16-21 15q-8 1-26 1-30 0-59-4t-60-14-54-25-38-42-15-59z m59 555q0-26 5-55t18-57 29-52 42-37 54-15q21 0 43 9t37 25q30 32 30 89 0 32-10 69t-27 73-47 57-65 23q-24 0-46-11t-37-29q-26-33-26-89z m424-274v60h118v121h59v-121h119v-60h-119v-122h-59v122h-118z" horiz-adv-x="928.6" />
<glyph glyph-name="gplus-squared" unicode="&#xe880;" d="m0 82v536q0 66 47 113t114 48h535q67 0 114-48t47-113v-536q0-66-47-113t-114-48h-535q-67 0-114 48t-47 113z m154 83q0-24 10-43t27-31 39-21 43-12 43-3q33 0 67 8t63 26 48 46 19 65q0 28-11 50t-28 38-32 26-27 25-12 24 9 24 21 22 25 24 21 33 8 46q0 33-12 55t-41 51h46l50 36h-148q-48 0-90-18t-71-55-29-85q0-52 36-87t88-34q13 0 24 2-7-16-7-30 0-25 22-53-97-6-143-35-26-16-42-41t-16-53z m66 17q0 25 14 44t37 29 46 14 47 4q11 0 17-1 1-1 13-9t15-11 12-10 14-12 11-13 9-14 5-15 3-18q0-42-33-62t-78-21q-23 0-45 6t-42 15-32 30-13 44z m38 352q0 34 18 58t51 24q30 0 52-25t33-57 9-60q0-33-18-55t-51-22q-30 0-52 24t-32 53-10 60z m278-166h71v-89h36v89h71v36h-71v71h-36v-71h-71v-36z" horiz-adv-x="857.1" />
<glyph glyph-name="hacker-news" unicode="&#xe881;" d="m0 82v536q0 66 47 113t114 48h535q67 0 114-48t47-113v-536q0-66-47-113t-114-48h-535q-67 0-114 48t-47 113z m205 544l181-328v-243h74v243l192 328h-84q-12-22-35-66t-38-72-33-66-34-71h-2q-11 26-24 54t-29 59-26 51-31 58-27 53h-84z" horiz-adv-x="857.1" />
<glyph glyph-name="html5" unicode="&#xe882;" d="m0 779h786l-72-803-322-90-321 90z m146-164l26-298h342l-12-128-110-29-110 29-7 78h-98l13-155 202-55h2v0l200 55 28 304h-359l-9 101h377l9 98h-494z" horiz-adv-x="785.7" />
<glyph glyph-name="instagramm" unicode="&#xe883;" d="m0 31v638q0 45 32 77t78 33h637q45 0 78-33t32-77v-638q0-45-32-77t-78-33h-637q-45 0-78 33t-32 77z m95 23q0-14 10-24t25-10h596q14 0 24 10t10 24v362h-75q11-35 11-73 0-71-36-130t-97-94-134-35q-110 0-188 76t-78 183q0 38 11 73h-79v-362z m162 298q0-69 51-118t121-49q72 0 122 49t51 118-51 118-122 49q-71 0-121-49t-51-118z m329 201q0-17 11-28t27-11h98q16 0 27 11t11 28v92q0 15-11 27t-27 11h-98q-16 0-27-11t-11-27v-92z" horiz-adv-x="857.1" />
<glyph glyph-name="joomla" unicode="&#xe884;" d="m0 36q0 41 25 72t63 40q-12 48 1 97t49 84l7 7 84-85-6-6q-21-21-21-50t21-50q20-20 49-20t50 20l17 17 84 85 90 89 84-85-89-89-84-85-17-17q-36-35-85-48t-95-1q-9-39-41-65t-72-25q-47 0-80 34t-34 81z m1 628q0 47 34 81t81 34q42 0 74-28t39-68q47 11 94-2t84-49l7-7-85-85-7 7q-21 21-50 21t-49-21-21-50 21-50l16-16 85-85 89-89-84-85-90 89-84 85-17 17q-38 37-50 89t2 100q-39 8-64 40t-25 72z m248-223l90 89 85 85 16 17q37 37 88 50t100-2q6 42 38 70t76 28q47 0 81-33t33-81q0-43-28-76t-71-38q14-48 1-99t-50-88l-7-7-84 85 7 7q21 20 21 49t-21 50-50 21-49-21l-17-17-85-85-89-89z m184-6l85 85 89-89 85-85 16-17q36-35 49-84t1-95q43-6 71-39t28-75q0-47-33-81t-81-34q-42 0-73 27t-40 66q-48-16-100-4t-90 50l-6 7 84 85 7-7q20-20 49-20t50 20 21 50-21 50l-17 16-85 85z" horiz-adv-x="857.1" />
<glyph glyph-name="jsfiddle" unicode="&#xe885;" d="m0 220q0 61 31 113t82 82q-7 22-7 46 0 64 46 109t111 46q53 0 96-33 42 86 124 139t182 52q93 0 171-45t124-122 45-168q0-3 0-10t-1-10q62-25 101-81t38-124q0-91-66-156t-159-65q-2 0-6 0t-6 0h-679q-95 6-161 70t-66 157z m261 51q0-68 47-108t116-40q77 0 134 56-9 11-26 31t-25 28q-37-36-80-36-31 0-52 19t-22 49q0 29 22 48t51 19q24 0 47-12t41-30 36-42 38-46 43-42 55-30 67-12q68 0 114 40t47 106q0 68-47 107t-115 40q-80 0-135-54 8-9 17-19t19-23 16-19q37 36 79 36 29 0 52-18t22-47q0-32-21-51t-52-19q-24 0-46 11t-40 31-37 42-39 46-43 41-54 31-66 12q-68 0-115-39t-48-106z" horiz-adv-x="1142.9" />
<glyph glyph-name="linkedin-squared" unicode="&#xe886;" d="m0 82v536q0 66 47 113t114 48h535q67 0 114-48t47-113v-536q0-66-47-113t-114-48h-535q-67 0-114 48t-47 113z m124 486q0-29 20-48t52-19h0q33 0 53 19t21 48q-1 29-21 48t-51 19-53-19-21-48z m8-507h129v387h-129v-387z m200 0h129v216q0 22 4 32 8 19 25 33t41 14q65 0 65-88v-207h129v222q0 86-41 130t-108 44q-75 0-116-65h1v56h-129q2-37 0-387z" horiz-adv-x="857.1" />
<glyph glyph-name="linux" unicode="&#xe887;" d="m6-71q-5 12 4 37t10 30q1 9-2 23t-6 23-2 21 6 15q7 6 31 8t34 6q17 10 23 20t7 28q12-41-18-59-18-11-46-8-19 1-24-6-7-8 3-32 1-3 4-10t5-10 2-9 1-13q0-8-9-27t-8-27q1-9 20-14 12-4 47-11t56-11q13-3 41-12t46-13 31-2q24 3 36 15t13 27-4 33-11 29-11 20q-67 106-94 135-38 41-63 23-6-6-9 8-1 9-1 21 1 16 6 29t13 26 13 24q4 11 14 40t17 43 17 34 21 31q62 79 70 108-7 63-9 173-2 51 13 85t59 58q22 12 58 12 30 1 59-8t50-23q32-23 51-68t17-82q-3-53 16-119 19-63 74-122 31-33 56-91t33-106q5-28 3-48t-7-31-11-12q-5-1-13-10t-15-20-23-19-34-8q-10 1-17 3t-13 8-7 8-7 12-5 10q-12 21-23 17t-15-27 4-54q11-39 0-109-5-36 10-56t41-19 47 20q33 28 50 37t58 24q30 10 43 20t10 20-14 16-28 13q-19 6-28 27t-8 40 8 26q1-17 5-31t8-23 11-16 12-10 12-7 9-6q11-6 18-13t6-14-1-12-9-13-13-10-17-11-17-9-18-9-15-7q-21-11-48-31t-42-36q-9-9-38-11t-50 8q-10 5-16 13t-9 15-13 11-26 5q-24 0-72 0-11 0-32 0t-32-2q-25 0-45-8t-30-17-24-16-30-6q-16 0-62 17t-81 24q-11 2-29 5t-28 5-22 6-18 8-10 11z m173 340q-20-36 6-93 3-6 14-15t13-11q11-13 58-51t52-42q9-9 10-22t-8-24-25-13q4-8 16-24t15-31 4-39q26 13 4 51-2 5-6 9t-5 7-1 3q2 3 7 6t11-2q26-29 93-20 74 9 99 49 13 21 19 17 6-4 5-30 0-13-13-51-5-13-3-21t13-8q2 10 9 43t7 50q1 12-4 41t-4 54 13 39q9 10 29 10 0 21 19 30t40 6 34-13q0 10-31 24 2 8 4 15t3 15 2 12 0 12-1 11-1 12-3 12-3 14-3 14q-5 27-26 58t-40 42q13-11 32-47 48-90 30-155-6-22-28-23-17-2-21 10t-5 47-6 59q-5 22-11 39t-11 25-9 14-7 8-4 4q-8 35-17 58t-17 31-13 18-8 23q-3 12 3 30t2 27-24 14q-9 2-25 10t-20 9q-4 1-6 15t4 28 20 15q21 2 29-17t2-32q-6-10-1-15t17 0q7 2 7 20v21q-3 17-8 28t-11 17-13 8-15 4q-60-4-50-75 0-8-1-8-5 5-16 6t-19 0-8 2q0 32-9 51t-25 19q-15 0-23-16t-10-33q0-8 2-21t8-20 8-8q6 2 9 8 2 5-4 4-4 0-8 8t-6 19q0 12 5 21t19 8q10 0 15-12t6-22-1-12q-12-9-17-16-5-7-16-14t-11-6q-7-8-9-16t4-10q8-4 14-10t9-11 10-7 20-4q27-1 57 8 1 1 13 4t19 6 17 7 11 10q6 8 12 5 2-2 3-5t-1-7-10-5q-11-3-31-12t-26-11q-24-11-39-13-14-3-44 1-5 1-5-1t10-10q14-13 37-13 10 1 20 4t20 8 19 10 17 9 13 7 10 1 5-6q0-1-1-2t-2-3-3-3-5-2-5-3-6-3-5-2q-15-8-37-25t-38-24-27 0q-12 6-35 40-12 18-14 13-1-2-1-6 0-14-8-31t-16-31-12-33 6-35q-13-3-35-50t-26-79q-1-10-1-38t-3-33q-4-14-16-2-18 17-20 53-1 15 2 31 2 10-1 10z m29 75q2 0 7 4t7 10q0 2 1 4t1 4 1 2 0 2v2t-1 1-1 2q-3 0-4-2t-2-7-3-8-6-7q-4-5 0-7z m129 313q1-3 2-3 6 0 4-9-1-11 5-11 1 0 1 2 2 9-1 16t-6 9q-5 1-5-4z m17-45q0 7 10 9h6q-6-1-9-6t-4-6q-3 0-3 3z m48 7q14 6 18-1 2-3-1-5-3-1-7 3t-10 3z m64 41l2-1q8-2 10-17 0-2 5 1l1 2q0 6-3 11t-6 6-5 2q-8 0-4-4z m9 104q-1-2 2-5 2-2 4 0t6 5 9 5q0 1 5 1t8 1 5 4q0 1-1 2t-5 4-6 4q-8 8-13 8-5 0-7-4t0-7 0-7q-1-3-4-6t-3-5z m72-212q-7-9 4-24t22-18q5 0 8 5t2 11q-1 4-3 6t-8 3-8 3q-3 2-5 5t-4 4-3 4-2 2-3-1z" horiz-adv-x="857.1" />
<glyph glyph-name="linkedin" unicode="&#xe888;" d="m0 672q0 41 29 68t75 27 74-27 29-68q0-41-29-68t-75-27h-1q-46 0-74 27t-28 68z m11-724v553h184v-553h-184z m285 0q1 223 1 361t0 165l-1 27h184v-80h-1q11 18 23 31t31 29 49 24 64 9q95 0 153-63t58-186v-317h-183v296q0 59-23 92t-71 33q-35 0-58-19t-36-48q-6-17-6-45v-309h-184z" horiz-adv-x="857.1" />
<glyph glyph-name="maxcdn" unicode="&#xe889;" d="m0-7l114 532-85 182h712q56 0 105-22t83-64q33-41 45-94t0-108l-92-426h-186l99 464q7 31-8 49-15 19-46 19h-95l-114-532h-186l114 532h-160l-114-532h-186z" horiz-adv-x="1000" />
<glyph glyph-name="openid" unicode="&#xe88a;" d="m0 247q0 78 56 147t154 114 218 61v-96q-121-21-199-84t-78-142q0-85 86-149t217-81v759l152 74v-857l-152-72q-127 12-231 57t-163 117-60 152z m633 226v96q154-19 268-88l78 44 21-217-293 63 82 47q-66 39-156 55z" horiz-adv-x="1000" />
<glyph glyph-name="pagelines" unicode="&#xe88b;" d="m0-125q0 11 7 18t18 7q97 0 180 60t140 164q-20-8-40-13t-46-7-51 1-52 16-51 33-47 56-42 81q64 27 120 32t93-4 70-31 49-43 31-46q30 73 45 162-4 0-10-1t-26-2-39 1-46 5-49 13-47 24-42 36-30 53-16 71q39 16 74 20t63 0 52-17 41-28 31-34 23-35 16-31 8-22l3-9q6 68 6 109-4 3-12 8t-27 25-35 40-30 52-19 63 7 71 39 77q41-14 71-34t47-43 27-47 11-50 0-48-7-43-11-34-9-24l-4-8q0-3 0-28t0-40q2 4 5 10t17 24 29 33 39 31 51 24 63 9 74-14q-1-43-12-79t-28-58-39-40-45-25-48-14-44-5-38 1-26 2l-9 2q-13-82-41-158 3 4 10 10t28 23 43 29 55 24 66 11 72-13 76-43q-17-45-42-77t-51-50-55-26-57-8-54 5-48 12-39 15-25 13l-10 6q-63-128-161-201t-215-74q-10 0-18 7t-7 18z" horiz-adv-x="785.7" />
<glyph glyph-name="pied-piper-squared" unicode="&#xe88c;" d="m0 82v536q0 66 47 113t114 48h535q67 0 114-48t47-113v-536q0-66-47-113t-114-48h-535q-67 0-114 48t-47 113z m164 127l117 23v115q31-10 65-10 70 0 119 53t50 127-50 128-119 53q-41 0-79-20h-103v-469z m117 233v154q16 10 39 10 30 0 51-26t21-60-21-61-51-26q-24 0-39 9z m74-471l118 23v115q28-11 65-11 70 0 119 53t49 128-49 128-119 53q-11 0-22-2-13-43-43-76-49-53-118-56v-355z m118 232v155q15 9 39 9 29 0 51-25t21-61-21-61-51-25q-24 0-39 8z" horiz-adv-x="857.1" />
<glyph glyph-name="pied-piper-alt" unicode="&#xe88d;" d="m23 247q0 8 5 15t12 8l271 59q-4 8-4 14t3 10 9 6 11 4 13 2 10 3q2 0 9 4t10 4q8 0 15-9t11-19q91 21 96 21 10 0 17-6t7-16q0-8-5-14t-13-8l-102-22 0-9q-1-15 45-66t59-51q26 0 66 45t40 72q0 20-13 29t-28 11-29 6-13 19q0 9 6 19l-38 11q24 24 24 65 0 14-3 32 46 9 80 9 25 0 40-1t27-4 18-8 11-14 9-18 9-27 14-33l27 14q-1-23-12-34t-24-12-22-3-10-12l1-11q42 1 80-12t66-32 56-53 47-60 42-68q19-31 44-61t42-44 55-50q-26-17-60-32t-77-33-64-26q-25 20-41 64t-25 92-18 100-24 94-40 69-69 27l-5-1-3-2q2-3 7-8 3-3 15-13t15-12 10-11 10-11 7-12 6-15 2-17 2-23l1-18q0-15-2-32t-4-29-7-33-6-30q-20 1-56-5t-55-6q-22 0-40 6-1 9-1 26 0 41 1 54 1 7 18 23t32 33 14 28q-13 1-24-13-20-30-62-56t-76-26q-14 0-42 36t-60 77-46 54q-4 3-15 17-269-62-287-62-9 0-15 6t-7 15z m403 123q6 1 18 4t20 3q10 0 19-5l-53-11z m33-60l27 7 60-99-40-27z m20 176q9 17 20 26t31 17 36 20 26 20 28 31 24 28q7-5 16-18t17-20 22-7l6 0v-42l13-1q137 53 207 106 15 12 28 22t23 21 19 17 16 19 14 17 13 21 13 21 15 27 17 30l3 5q-1-30-24-78-44-92-114-147t-171-80q-7-1-23-4t-28-5-22-8q2-11 14-26t12-19q0-6-15-16-2 2-7 8t-7 8-6 7-5 6l-5 4t-4 4-5 3-5 3q-4 1-8 2t-11 2-12 0h-40q-70 0-121-24z m113-468h17l6-46-23-7v53z m0-69q22 14 73 26t82 12q5 0 13-8t15-24 15-28 13-29 8-18q-67-25-136-25-34 0-70 6z m31 60q11 1 34 5t40 5 33 2h8q2-8 2-9 0-3-10-8t-25-7-31-5-29-5-18-2z m463 837l1 1 1 2 0-2z m2 3v0z m0 0l1 1z" horiz-adv-x="1137.3" />
<glyph glyph-name="pinterest-circled" unicode="&#xe88e;" d="m0 350q0 117 58 215t155 156 216 58 215-58 156-156 57-215-57-215-156-156-215-58q-62 0-122 18 33 52 43 92 5 19 31 118 11-22 40-38t64-16q67 0 120 38t83 105 29 151q0 64-34 119t-96 91-142 36q-59 0-110-17t-86-43-61-61-37-72-12-75q0-58 22-102t66-62q16-7 21 11 1 4 4 17t5 17q3 13-6 24-29 34-29 84 0 84 58 145t153 61q84 0 131-46t48-119q0-95-39-161t-98-67q-34 0-54 24t-13 59q4 19 15 52t16 57 7 43q0 27-15 46t-43 18q-35 0-59-31t-24-80q0-40 14-68l-55-233q-10-39-7-99-115 51-186 157t-71 236z" horiz-adv-x="857.1" />
<glyph glyph-name="pinterest-squared" unicode="&#xe88f;" d="m0 82v536q0 66 47 113t114 48h535q67 0 114-48t47-113v-536q0-66-47-113t-114-48h-404q47 68 60 118 5 19 30 116 11-21 41-37t63-16q101 0 164 83t64 208q0 47-19 91t-54 77-85 54-110 21q-58 0-109-16t-85-43-60-61-37-71-12-74q0-57 22-101t65-61q7-3 13 0t8 10q6 25 9 34 3 13-7 24-28 35-28 84 0 83 58 143t151 59q83 0 130-45t47-117q0-94-38-160t-97-66q-33 0-54 25t-13 57q5 19 15 52t16 57 6 41q0 28-14 46t-42 18q-35 0-58-31t-24-78q0-40 13-68l-54-231q-14-56-4-142h-102q-67 0-114 48t-47 113z" horiz-adv-x="857.1" />
<glyph glyph-name="qq" unicode="&#xe890;" d="m10 140q0 154 141 260-5 11-5 29 0 11 6 28t14 25q-1 12 4 29t13 24q0 78 51 161t121 117q78 37 181 37 75 0 149-31 27-12 50-27t40-31 30-38 24-41 18-47 14-50 12-55l1-3q31-46 31-83 0-8-5-23t-5-21q0 0 0-2t2-3 1-2q43-63 68-119t24-117q0-24-11-55t-31-32q-5 0-11 4t-10 10-11 14-9 15-7 15-5 9q-1 1-2 1l-3-2q-33-86-74-125 12-11 35-21t38-23 20-37q-1-2-2-9t-4-10q-36-54-169-54-29 0-61 5t-55 11-58 17q-9 3-13 4-8 2-26 3t-22 0q-23-25-71-36t-94-11q-20 0-39 1t-52 5-56 11-42 23-18 35q0 23 6 33t23 28q6 1 22 7t28 6q2 0 8 2 1 1 1 2l-1 2q-27 6-60 58t-41 88l-3 1q-2 0-7-11-10-23-30-41t-43-21h-1q-2 0-3 2t-3 3q-13 30-13 56z" horiz-adv-x="1000" />
<glyph glyph-name="reddit" unicode="&#xe891;" d="m0 396q0 52 37 89t89 37q46 0 83-31 138 88 330 92l75 236q2 8 10 12t16 2l193-46q12 28 38 46t58 17q43 0 73-30t30-74-30-73-73-31q-43 0-73 30t-31 73l-176 41-65-204q183-8 313-93 35 33 84 33 52 0 89-37t37-89q0-35-17-64t-46-46q2-18 2-34 0-67-38-128t-110-108q-70-46-159-70t-188-25q-98 0-187 25t-159 70q-72 47-110 107t-39 129q0 16 3 37-27 17-43 46t-16 61z m43 0q0-38 28-62 28 73 101 131-20 14-46 14-34 0-59-24t-24-59z m56-144q0-56 34-108t95-93q65-41 148-64t175-23 175 23 148 64q63 41 96 93t33 108-33 108-96 93q-64 42-148 64t-175 23-175-23-148-64q-62-41-95-93t-34-108z m211 60q0 32 23 55t54 23 54-23 23-55q0-31-23-53t-54-23q-32 0-54 23t-23 53z m59-202q0 9 6 15t15 6 15-6q43-43 148-43h1q105 0 148 43 6 6 15 6t15-6 6-15-6-16q-55-55-178-55h-1q-123 0-178 55-6 7-6 16z m274 202q0 32 24 55t54 23 54-23 22-55q0-31-22-53t-54-23q-32 0-55 23t-23 53z m225 434q0-25 18-43t43-18 43 18 17 43-17 43-43 18-43-18-18-43z m65-283q73-58 99-133 32 26 32 66 0 34-24 59t-59 24q-27 0-48-16z" horiz-adv-x="1107.1" />
<glyph glyph-name="reddit-squared" unicode="&#xe892;" d="m0 101v498q0 75 53 127t126 53h500q73 0 126-53t52-127v-498q0-75-52-127t-126-53h-500q-74 0-126 53t-53 127z m87 288q0-21 10-38t30-26q-4-13-4-30 0-54 41-101t113-74 155-27q84 0 155 27t112 74 42 101q0 15-4 30 20 8 32 26t12 39q0 29-20 49t-48 20q-34 0-55-26-84 59-209 64l46 148 115-28q1-28 20-47t47-20q28 0 48 20t21 48-21 48-48 20q-20 0-36-12t-25-29l-127 30q-5 1-10-2t-6-8l-53-168q-125-2-213-63-20 24-52 24-28 0-48-21t-20-48z m188-54q0 21 15 35t35 15 35-15 14-35-14-36-35-15-35 15-15 36z m38-133q0 6 4 10 4 4 10 4t10-4q27-28 95-28h2q68 0 96 28 4 4 10 4t10-4 4-10-4-10q-37-36-116-36h-1q-80 0-116 36-4 4-4 10z m179 133q0 21 15 35t35 15 35-15 15-35-15-36-35-15-35 15-15 36z m146 283q0 17 12 28t27 12q17 0 29-12t12-28q0-16-12-28t-29-12q-16 0-27 12t-12 28z" horiz-adv-x="857.1" />
<glyph glyph-name="renren" unicode="&#xe893;" d="m0 349q0 104 47 195t128 150 181 77v-271q0-141-71-256t-184-171q-101 120-101 276z m222-375q77 48 132 118t73 149q19-80 74-149t131-118q-95-53-205-53-109 0-205 53z m279 526v271q100-17 181-77t129-150 46-195q0-156-101-276-114 55-184 171t-71 256z" horiz-adv-x="857.1" />
<glyph glyph-name="skype" unicode="&#xe894;" d="m0 564q0 89 63 152t151 63q73 0 131-45 43 9 84 9 79 0 152-31t126-84 83-125 31-153q0-41-9-84 45-58 45-130 0-89-63-152t-151-63q-73 0-131 45-43-9-83-9-80 0-153 31t-126 84-83 125-31 153q0 41 9 84-45 58-45 130z m210-348q0-52 68-88t162-37q41 0 78 10t69 30 49 52 19 74q0 28-11 51t-27 38-41 27-46 19-49 13l-58 14q-17 4-25 6t-19 6-17 9-9 12-4 16q0 43 80 43 24 0 43-6t30-16 21-19 23-16 27-7q26 0 42 18t16 43q0 31-32 55t-79 38-101 13q-38 0-74-9t-67-26-49-48-19-72q0-34 10-60t32-42 44-27 58-18l81-20q51-12 63-20 18-11 18-34 0-21-23-36t-58-14q-29 0-51 9t-37 22-25 25-26 21-30 9q-28 0-42-17t-14-41z" horiz-adv-x="857.1" />
<glyph glyph-name="slack" unicode="&#xe895;" d="m0 437q0 26 15 47t40 30l88 30-30 88q-4 14-4 27 0 33 23 57t57 24q26 0 48-16t29-40l30-89 173 59-30 89q-4 13-4 26 0 33 23 57t57 24q26 0 48-15t30-40l29-90 91 31q11 3 24 3 33 0 57-22t24-55q0-25-17-46t-42-28l-87-30 58-177 92 32q13 4 26 4 34 0 57-23t24-56q0-54-52-73l-96-33 31-93q4-12 4-26 0-33-24-57t-56-24q-26 0-48 15t-30 40l-30 92-173-59 31-91q4-14 4-27 0-33-23-57t-57-24q-27 0-48 15t-29 41l-31 91-85-30q-17-5-28-5-34 0-57 22t-23 57q0 26 16 47t40 30l87 29-59 175-87-30q-14-5-27-5-33 0-56 23t-23 56z m346 8l59-174 173 58-59 176z" horiz-adv-x="928.6" />
<glyph glyph-name="soundclowd" unicode="&#xe896;" d="m0 219l10 71q1 5 5 5t5-5l11-71-11-70q-2-5-5-5t-5 5z m44 0l13 115q0 5 5 5 4 0 6-5l14-115-14-113q-2-5-6-5-5 0-5 5z m50 0l12 137q1 6 7 6 6 0 6-6l14-137-14-132q0-6-6-6-6 0-7 6z m51 0l11 141q0 7 8 7 6 0 7-7l13-141-13-136q-1-8-7-8-8 0-8 8z m50 0l12 130q0 4 2 6t6 3q8 0 9-9l12-130-12-137q-1-9-9-9-3 0-6 2t-2 7z m29-137z m23 137l10 212q1 10 10 10 4 0 6-3t3-7l12-212-12-137q0-4-3-7t-6-3q-9 0-10 10z m51-1l9 261q1 11 11 11 5 0 8-4t3-7l10-261-10-136q0-5-3-8t-8-3q-10 0-11 11z m52 1l9 282q0 5 4 9t8 4q5 0 8-4t4-9l10-282-10-135q-1-12-12-12-10 0-12 12z m53 0l8-135q1-5 4-9t9-3q12 0 14 12l8 135-8 292q-1 5-5 9t-9 4q-5 0-9-4t-4-9z m35-135z m18 135l8 284q0 7 4 11t10 3 9-3 5-11l8-284-8-133q0-6-5-10t-9-4-10 3-4 11z m54-1l6 275q1 7 5 11t11 4 10-4 5-11l8-275-8-131q0-6-5-11t-10-4-11 4-5 11z m54 1q0-1 6-132v0q0-6 3-10 5-6 13-6 6 0 11 5 5 4 5 11l1 14 6 117-7 327q0 9-7 14-5 2-9 2t-9-2q-7-5-7-14l-1-3z m38-132z m14 131l6 355v2q1 8 7 13 5 4 11 4 5 0 8-3 8-4 9-14l8-357-8-129q0-7-5-12t-12-5-12 5-6 12l-3 64z m56-128v502q0 12 16 18 47 19 101 19 108 0 188-73t89-181q30 12 62 12 65 0 111-46t47-112q0-65-47-111t-111-46h-439q-7 1-12 6t-5 12z" horiz-adv-x="1285.7" />
<glyph glyph-name="spotify" unicode="&#xe897;" d="m0 350q0 117 58 215t155 156 216 58 215-58 156-156 57-215-57-215-156-156-215-58-216 58-155 156-58 215z m132 137q0-17 12-29t28-11q7 0 23 4 74 21 171 21 89 0 173-19t141-53q12-7 23-7 16 0 28 11t12 29q0 26-23 39-70 41-163 62t-191 21q-114 0-204-26-12-4-21-15t-9-27z m29-139q0-14 10-23t24-10q4 0 20 4 69 19 140 19 156 0 273-69 13-8 21-8 14 0 24 10t9 24q0 22-19 34-132 78-306 78-85 0-169-23-27-7-27-36z m18-129q0-11 8-19t20-8q2 0 20 5 74 15 136 15 126 0 221-58 11-6 19-6 10 0 18 8t8 19q0 18-17 28-108 64-249 64-74 0-160-19-24-5-24-29z" horiz-adv-x="857.1" />
<glyph glyph-name="stackexchange" unicode="&#xe898;" d="m12 114v37h691v-37q0-47-33-81t-77-33h-32l-145-150v150h-295q-45 0-77 33t-32 81z m0 76v143h691v-143h-691z m0 183v143h691v-143h-691z m0 183v38q0 47 32 80t77 33h472q45 0 77-33t33-80v-38h-691z" horiz-adv-x="714.3" />
<glyph glyph-name="stackoverflow" unicode="&#xe899;" d="m0-149v410h68v-345h517v345h67v-391l0-19v-1h-632l-19 1h-1z m123 132v85l395 0v-84z m4 145l8 84 392-36-7-84z m24 179l21 82 382-103-22-81z m69 204l43 72 340-201-43-72z m175 209l69 48 222-326-69-48z m239 115l83 15 68-389-84-14z" horiz-adv-x="785.7" />
<glyph glyph-name="steam" unicode="&#xe89a;" d="m0 419q0 48 34 82t82 34q40 0 72-26t41-65l437-176q27 16 59 16 8 0 12 0l96 138q1 64 46 109t109 44q64 0 109-45t46-109-46-110-109-45l-148-108q-5-45-38-75t-77-30q-41 0-73 26t-40 65l-437 176q-29-17-59-17-48 0-82 34t-34 82z m31 0q0-36 25-60t60-25q6 0 18 2l-36 15q-18 7-29 24t-11 38q0 27 20 47t48 20q11 0 22-4v0l43-17q-11 20-32 33t-43 12q-36 0-60-25t-25-60z m619-290q10-21 31-33t44-12q35 0 60 25t25 60-25 60-60 25q-7 0-19-2 2-1 12-5t12-4 10-5 11-6 8-6 9-7 6-8 6-11 3-11 1-14q0-28-20-48t-47-20q-8 0-18 3t-16 5-18 7-15 7z m234 292q0-43 30-73t74-31 73 31 31 73-31 73-73 31q-43 0-73-31t-31-73z m22 0q0 34 24 59t58 24 59-25 24-58-24-58-59-25q-34 0-58 25t-24 58z" horiz-adv-x="1142.9" />
<glyph glyph-name="steam-squared" unicode="&#xe89b;" d="m0 82v536q0 66 47 113t114 48h535q67 0 114-48t47-113v-536q0-66-47-113t-114-48h-535q-67 0-114 48t-47 113z m71 298q0-30 22-51t51-21q20 0 37 10l273-110q5-25 25-41t46-16q27 0 48 19t23 46l93 68q40 0 68 28t29 69-29 68-68 29q-40 0-68-28t-29-68l-60-87q-1 0-4 1t-3 0q-20 0-38-11l-273 110q-5 25-25 41t-45 16q-30 0-51-21t-22-51z m19 0q0 22 16 38t38 15q15 0 28-8t19-20l-27 10q-16 6-31-1t-22-23q-7-16 0-31t22-23v0l22-9q-8-1-11-1-22 0-38 15t-16 38z m387-181q3-1 26-11 17-6 33 0t23 24q6 16-1 32t-23 22l-22 9q8 1 12 1 21 0 37-15t16-38-16-37-37-16q-33 0-48 29z m147 182q0 26 19 45t46 19q27 0 46-19t19-45-19-46-46-19q-27 0-46 19t-19 46z m13 0q0-21 16-37t36-15 37 15 15 37q0 21-15 37t-37 15-36-15-16-37z" horiz-adv-x="857.1" />
<glyph glyph-name="stumbleupon" unicode="&#xe89c;" d="m0 180v149h183v-146q0-24 17-41t40-16 40 16 17 41v346q0 95 70 163t169 67q98 0 168-68t71-164v-76l-109-32-73 34v66q0 23-17 40t-40 16-40-16-17-40v-342q0-98-70-167t-170-69q-99 0-169 70t-70 169z m593-2v150l73-34 109 32v-151q0-23 16-40t40-16 41 16 16 40v154h183v-149q0-99-70-169t-169-70q-99 0-169 69t-70 168z" horiz-adv-x="1071.4" />
<glyph glyph-name="stumbleupon-circled" unicode="&#xe89d;" d="m0 350q0 117 58 215t155 156 216 58 215-58 156-156 57-215-57-215-156-156-215-58-216 58-155 156-58 215z m179-77q0-46 32-78t78-31q45 0 77 31t32 76v157q0 10 7 18t19 8q11 0 18-8t8-18v-31l33-15 50 15v34q0 45-32 76t-77 31-77-31-32-75v-158q0-11-8-19t-18-7-19 7-7 19v67h-84v-68z m271-1q0-45 32-77t78-31 77 31 32 78v68h-84v-70q0-11-7-19t-19-7q-10 0-18 7t-8 19v68l-50-14-33 16v-69z" horiz-adv-x="857.1" />
<glyph glyph-name="tencent-weibo" unicode="&#xe89e;" d="m32 525q0 66 26 126t69 104 104 69 126 26q88 0 163-44t119-118 43-163-43-163-119-119-163-43q-36 0-73 8-12 2-18 13t-4 22q3 11 13 17t22 5q28-8 60-8 54 0 104 21t85 57 57 86 21 104-21 103-57 86-85 57-104 21-104-21-85-57-57-86-21-103q0-64 29-122 5-11 2-22t-14-17-22-2-17 15q-36 68-36 148z m31-511q6 68 17 121t30 104 38 87 42 70q34 50 73 92-9 19-9 43 0 44 32 76t76 32 76-32 32-76-32-76-76-32q-33 0-62 20-34-38-64-82-138-207-113-479 1-13-7-22t-19-10h-3q-11 0-19 7t-10 19q-7 70-2 138z" horiz-adv-x="714.3" />
<glyph glyph-name="trello" unicode="&#xe89f;" d="m0-43v786q0 14 11 25t25 11h785q15 0 26-11t10-25v-786q0-14-10-25t-26-11h-785q-15 0-25 11t-11 25z m89 143q0-8 5-13t13-5h268q8 0 13 5t5 13v571q0 8-5 13t-13 5h-268q-8 0-13-5t-5-13v-571z m375 214q0-8 5-13t13-5h268q8 0 13 5t5 13v357q0 8-5 13t-13 5h-268q-8 0-13-5t-5-13v-357z" horiz-adv-x="857.1" />
<glyph glyph-name="tumblr" unicode="&#xe8a0;" d="m44 428v121q50 16 86 47 36 30 58 73 21 44 30 110h122v-217h203v-134h-203v-220q0-76 8-96 7-21 29-34 28-17 65-17 65 0 129 42v-135q-56-27-99-36-43-11-96-11-59 0-104 15-44 14-77 42-33 29-44 59-13 30-13 90v301h-94z" horiz-adv-x="571.4" />
<glyph glyph-name="tumblr-squared" unicode="&#xe8a1;" d="m0 82v536q0 66 47 113t114 48h535q67 0 114-48t47-113v-536q0-66-47-113t-114-48h-535q-67 0-114 48t-47 113z m231 326h70v-225q0-44 10-68 9-23 33-43 24-21 58-32 34-11 78-11 37 0 72 7 32 8 75 28v101q-49-31-97-31-29 0-50 12-16 10-21 25-6 17-6 72v165h152v101h-152v162h-92q-6-50-22-82t-44-55q-27-22-64-35v-91z" horiz-adv-x="857.1" />
<glyph glyph-name="twitter-squared" unicode="&#xe8a2;" d="m0 82v536q0 66 47 113t114 48h535q67 0 114-48t47-113v-536q0-66-47-113t-114-48h-535q-67 0-114 48t-47 113z m143 70q82-52 180-52 62 0 117 20t93 53 68 76 42 91 13 94q0 10 0 15 35 25 58 61-31-14-67-19 38 22 52 65-37-21-75-29-34 37-85 37-49 0-83-34t-35-83q0-16 3-27-72 4-135 37t-107 86q-16-28-16-59 0-64 51-98-27 1-56 15v-1q0-42 28-75t68-40q-16-5-28-5-7 0-22 2 12-35 42-58t67-23q-64-50-145-50-15 0-28 1z" horiz-adv-x="857.1" />
<glyph glyph-name="twitter" unicode="&#xe8a3;" d="m25 74q19-2 43-2 126 0 224 77-59 1-105 36t-64 89q19-3 34-3 24 0 48 6-63 13-104 62t-41 115v2q38-21 82-23-37 25-59 64t-22 86q0 49 25 91 67-83 164-133t208-55q-5 21-5 41 0 75 53 127t127 53q78 0 132-57 61 12 114 44-20-64-79-100 52 6 104 28-37-54-90-93 0-8 0-23 0-73-21-145t-64-139-103-117-144-82-181-30q-151 0-276 81z" horiz-adv-x="928.6" />
<glyph glyph-name="vimeo-squared" unicode="&#xe8a4;" d="m0 82v536q0 66 47 113t114 48h535q67 0 114-48t47-113v-536q0-66-47-113t-114-48h-535q-67 0-114 48t-47 113z m71 361q9-5 15-15t12-11q11-2 30 5t32 6 24-17q6-10 10-22t8-26 7-23q10-26 30-104 20-82 32-110 23-56 57-70 24-7 48-1t42 18q73 43 139 132 59 77 97 163t46 127q9 47-12 73-29 36-104 25-10-1-23-7t-32-17-36-27-33-39-25-51q44 4 63-9t15-55q-3-29-29-80-24-43-40-55-24-18-48 8-13 13-21 36t-11 40-5 47-5 40q-13 72-19 92-7 20-20 38t-28 23q-32 8-71-14-30-18-76-60t-69-56v-4z" horiz-adv-x="857.1" />
<glyph glyph-name="vine" unicode="&#xe8a5;" d="m22 710h158q14-121 39-222t58-177 68-131 78-109q94 94 160 227-79 40-124 122t-45 186q0 107 58 176t158 68q99 0 152-59t53-166q0-89-32-159-4-1-11-2t-26-1-35 3-34 14-28 29q17 58 17 103 0 48-16 73t-44 25q-30 0-48-27t-18-79q0-103 59-163t149-60q34 0 67 8v-111q-56-13-110-13-36-76-92-151t-102-120-71-60q-45-25-91 2-15 9-33 24t-48 47-57 72-60 102-59 136-51 176-39 217z" horiz-adv-x="857.1" />
<glyph glyph-name="vkontakte" unicode="&#xe8a6;" d="m-1 553q0 6 2 9l2 3q9 11 32 11l153 1q7-1 13-4t9-4l3-2q9-6 13-18 11-28 26-58t23-45l9-16q16-34 31-58t27-38 23-22 19-8 15 3q1 1 3 3t7 12 7 26 5 46 0 69q-1 23-5 41t-7 26l-4 6q-14 19-47 24-8 1 3 14 9 10 21 17 29 14 133 13 46-1 75-7 12-3 19-8t12-13 5-18 2-26 0-30-2-40 0-46q0-6-1-23t0-27 2-22 6-22 13-14q4-1 9-2t15 6 21 19 29 38 38 60q33 58 60 125 2 6 5 10t6 6l2 2 3 1t8 2 11 0l160 1q22 3 36-1t17-10l4-5q13-36-84-164-13-18-36-48-44-56-50-73-10-23 7-45 10-12 46-46h0l1 0 0-1 1-1q79-73 107-123 2-3 4-7t3-15 0-19-14-15-33-7l-143-3q-13-2-31 3t-29 12l-11 7q-17 12-39 36t-38 43-34 32-32 9q-1 0-4-2t-10-8-12-16-9-29-4-44q0-8-2-15t-4-10l-2-3q-10-11-30-12h-64q-40-3-81 9t-74 29-57 37-40 32l-14 14q-5 5-15 16t-40 51-59 84-68 118-73 152q-4 9-4 15z" horiz-adv-x="1071.4" />
<glyph glyph-name="wechat" unicode="&#xe8a7;" d="m0 472q0 94 54 173t148 125 203 45q98 0 185-36t146-102 76-146q-17 3-39 3-94 0-173-43t-125-117-45-160q0-44 13-85-20-2-38-2-15 0-28 1t-31 4-25 4-30 6-28 5l-141-70 40 121q-162 114-162 274z m212 121q0-22 19-36t42-14q23 0 37 13t14 37-14 37-37 14q-24 0-42-15t-19-36z m243-375q0 80 46 148t125 106 173 40q90 0 169-40t127-107 48-147q0-65-38-124t-104-108l31-101-111 60q-84-20-122-20-94 0-173 39t-125 107-46 147z m41 375q0-22 18-36t42-14q23 0 37 13t14 37-14 37-37 14q-24 0-42-15t-18-36z m151-283q0-16 13-28t28-13q22 0 36 12t14 29q0 15-14 28t-36 12q-16 0-28-13t-13-27z m223 0q0-16 13-28t27-13q22 0 36 12t15 29q0 15-15 28t-36 12q-15 0-27-13t-13-27z" horiz-adv-x="1142.9" />
<glyph glyph-name="weibo" unicode="&#xe8a8;" d="m0 211q0 64 39 137t110 144q94 94 191 131t137-3q36-36 11-117-2-8 0-11t5-4 8 0 8 2l3 1q78 33 138 33t85-34q25-35 0-99-1-8-3-11t3-7 7-5 9-3q32-10 58-26t44-46 19-65q0-38-20-77t-61-77-94-65-126-47-151-17-154 19-134 51-96 85-36 111z m101-40q5-53 50-94t116-61 153-12q125 13 206 79t74 148q-5 53-49 94t-117 61-153 12q-124-13-206-79t-74-148z m130-49q-23 51 3 104 27 52 85 78t117 10q62-16 89-66t1-107q-25-57-88-83t-125-7q-60 19-82 71z m45 15q5-20 24-29t42-1 35 27q11 18 6 38t-25 28q-19 8-41 0t-33-25q-13-19-8-38z m117 79q-9-18 8-26 8-2 16 1t12 10q5 7 2 15t-10 10q-7 3-16 0t-12-10z m257 488q-3 15 5 29t25 16q68 14 136-6t116-75q48-54 63-125t-8-134q-5-16-19-23t-29-2-22 19-3 29q16 46 6 96t-45 88q-35 39-83 53t-96 5q-16-3-29 6t-17 24z m33-127q-3 14 5 25t20 14q34 7 67-3t56-36 30-61-3-66q-5-12-17-19t-25-2q-12 5-19 17t-2 25q11 35-13 61t-60 20q-13-3-25 4t-14 21z" horiz-adv-x="1000" />
<glyph glyph-name="windows" unicode="&#xe8a9;" d="m0-22v311h381v-364z m0 358v315l381 52v-367h-381z m422-416v369h507v-439z m0 416v373l507 70v-443h-507z" horiz-adv-x="928.6" />
<glyph glyph-name="wordpress" unicode="&#xe8aa;" d="m0 350q0 102 40 194t106 160 160 106 194 40 194-40 160-106 106-160 40-194-40-194-106-160-160-106-194-40-194 40-160 106-106 160-40 194z m23 0q0-97 38-185t102-152 152-102 185-38 185 38 152 102 102 152 38 185-38 185-102 152-152 102-185 38-185-38-152-102-102-152-38-185z m48 0q0 91 37 175l205-561q-109 53-176 157t-66 229z m71 235q58 90 153 142t205 52q82 0 157-30t133-83h-6q-31 0-51-22t-21-54q0-6 1-13t2-12 5-13 5-12 7-12 7-12 8-13 7-13q36-60 36-118 0-11-2-22t-5-27-7-25-10-33-9-32l-43-143-155 461q26 1 49 4 11 1 15 11t-2 17-16 7l-114-5q-42 0-113 5-6 1-11-2t-6-9-1-10 5-9 11-5l44-4 67-183-94-281-156 464q26 1 49 4 11 1 15 11t-2 17-15 7l-115-5q-4 0-13 0t-14 0z m237-646l128 374 133-361q0-4 2-7-70-24-142-24-62 0-121 18z m336 40l132 379q32 94 32 154 0 23-3 44 53-97 53-206 0-117-58-215t-156-156z" horiz-adv-x="1000" />
<glyph glyph-name="xing" unicode="&#xe8ab;" d="m3 207q-6 10 0 20l141 250q1 0 0 1l-90 155q-7 13 0 21 5 8 17 8h134q22 0 37-25l91-159q-5-10-143-255-15-25-37-25h-133q-12 0-17 9z m296 87q10 18 296 525 14 25 36 25h135q12 0 17-8 6-9 0-21l-295-521v0l188-344q6-11 0-20-5-9-18-9h-133q-23 0-37 25z" horiz-adv-x="785.7" />
<glyph glyph-name="xing-squared" unicode="&#xe8ac;" d="m0 82v536q0 66 47 113t114 48h535q67 0 114-48t47-113v-536q0-66-47-113t-114-48h-535q-67 0-114 48t-47 113z m127 132q4-7 13-7h103q18 0 28 20l111 196q0 1-70 124-12 19-29 19h-103q-10 0-14-6-4-7 0-16l70-121v-1l-109-193q-5-7 0-15z m229 67q1-1 146-269 11-19 29-19h103q10 0 14 6 4 8-1 16l-145 266v0l228 404q5 9 0 15-3 7-13 7h-104q-17 0-28-19z" horiz-adv-x="857.1" />
<glyph glyph-name="youtube" unicode="&#xe8ad;" d="m15 138q0 131 15 195 7 33 32 56t57 26q103 11 310 11t309-11q33-4 57-26t33-56q14-62 14-195 0-131-14-195-8-33-33-56t-57-25q-102-12-309-12t-310 12q-32 3-57 25t-32 56q-15 62-15 195z m62 139h59v-318h55v318h60v52h-174v-52z m71 573h60l39-147 38 147h57l-67-223v-151h-56v151q-8 42-34 119-21 57-37 104z m110-833q0-28 5-41 7-21 32-21 27 0 57 34v-30h50v276h-50v-211q-17-23-32-23-10 0-11 11-1 2-1 20v203h-50v-218z m85 550v97q0 45 15 65 21 29 59 29 38 0 59-29 16-20 16-65v-97q0-46-16-66-21-29-59-29-38 0-59 29-15 21-15 66z m50-10q0-39 24-39t24 39v117q0 39-24 39t-24-39v-117z m52-598h50v27q25-31 52-31 30 0 40 31 5 15 5 56v110q0 41-5 55-10 31-40 31-28 0-52-30v121h-50v-370z m50 54v168q12 12 25 12 22 0 22-37v-118q0-37-22-37-13 0-25 12z m38 522v220h51v-205q0-19 0-20 2-12 12-12 15 0 32 24v213h51v-279h-51v31q-30-35-58-35-25 0-33 21-4 13-4 42z m98-486q0-44 16-65 22-29 60-29 40 0 60 30 10 15 12 30 1 5 1 33v7h-51q0-29-1-34-4-20-22-20-26 0-26 38v49h100v57q0 44-15 65-22 28-59 28-38 0-60-28-15-21-15-65v-96z m49 81v25q0 38 25 38t25-38v-25h-50z" horiz-adv-x="857.1" />
<glyph glyph-name="yahoo" unicode="&#xe8ae;" d="m61 850q32-8 60-8 24 0 62 8 35-62 75-128t93-154 77-127q21 34 61 99t66 106 58 98 60 106q30-8 60-8 31 0 63 8-15-22-33-49t-28-44-31-54-28-47q-81-138-197-340l8-395q-35 7-59 7-23 0-59-7l8 395q-23 38-94 165t-121 209-101 160z" horiz-adv-x="857.1" />
<glyph glyph-name="youtube-squared" unicode="&#xe8af;" d="m0 82v536q0 66 47 113t114 48h535q67 0 114-48t47-113v-536q0-66-47-113t-114-48h-535q-67 0-114 48t-47 113z m122 115q0-98 11-145 5-24 24-41t42-19q76-9 230-9t229 9q24 2 43 19t23 41q11 47 11 145 0 99-10 145-6 25-24 41t-43 19q-75 9-229 9-154 0-230-9-24-2-42-19t-24-41q-11-48-11-145z m45 103v39h130v-39h-45v-236h-41v236h-44z m54 426l13-39t13-38q20-58 26-89v-112h41v112l50 166h-41l-29-109-29 109h-44z m81-619v162h37v-151q0-13 1-14 0-8 8-8 11 0 24 17v156h37v-205h-37v23q-22-25-43-25-18 0-23 15-4 9-4 30z m63 408q0-32 12-48 15-22 43-22 28 0 44 22 11 15 11 48v73q0 32-11 48-16 21-44 21-28 0-43-21-12-16-12-48v-73z m37-7v87q0 29 18 29t18-29v-87q0-29-18-29t-18 29z m39-444v275h37v-89q18 22 38 22 23 0 30-24 4-11 4-41v-81q0-29-4-41-7-23-30-23-19 0-38 22v-20h-37z m37 40q9-8 19-8 16 0 16 27v88q0 27-16 27-10 0-19-9v-125z m28 387q0-20 4-30 6-16 23-16 21 0 43 26v-23h38v207h-38v-158q-12-18-23-18-8 0-9 9 0 2 0 15v152h-38v-164z m73-360v72q0 33 11 48 16 21 44 21t44-21q12-16 12-48v-43h-74v-36q0-28 18-28 14 0 17 14 0 1 1 4t0 9v12h38v-5q0-16-1-24-2-12-9-22-15-22-44-22-29 0-46 21-11 15-11 48z m37 60h36v19q0 28-18 28t-18-28v-19z" horiz-adv-x="857.1" />
<glyph glyph-name="youtube-play" unicode="&#xe8b0;" d="m0 350q0 54 1 84t4 76 13 82q9 41 38 69t70 32q123 14 374 14t374-14q40-4 70-32t39-69q7-36 12-82t4-76 1-84-1-84-4-76-13-82q-9-41-38-69t-70-32q-123-14-374-14t-374 14q-40 4-70 32t-39 69q-7 36-12 82t-4 76-1 84z m357-179q0-21 19-31 9-4 17-4 11 0 19 5l286 179q16 9 16 30t-16 30l-286 179q-17 11-36 1-19-10-19-31v-358z" horiz-adv-x="1000" />
<glyph glyph-name="blank" unicode="&#xe8b1;" d="m0 82v536q0 66 47 113t114 48h535q67 0 114-48t47-113v-536q0-66-47-113t-114-48h-535q-67 0-114 48t-47 113z" horiz-adv-x="857.1" />
<glyph glyph-name="lemon" unicode="&#xe8b2;" d="m0 235q0 61 10 121t31 117 56 108 83 87q44 33 130 67 108 44 176 44 34 0 98-14t97-13q10 0 32 3t32 2q45 0 66-28t20-75q0-13-2-38t-3-38q0-5 0-10t2-10 2-7 4-9 4-10q9-22 14-66t5-76q0-92-39-183t-110-160-157-101q-69-25-182-25-31 0-94 8t-95 9q-13 0-40-9t-41-8q-41 0-69 31t-28 72q0 13 6 38t6 37q0 23-7 68t-7 67z m71 0q0-22 7-67t7-67q0-13-6-38t-6-36 7-20 19-9q13 0 40 7t41 6q32 0 95-9t94-9q101 0 159 21 72 25 131 85t93 137 33 153q0 25-4 63t-10 54q-6 17-9 25t-5 20-3 27q0 13 3 38t3 38q0 21-6 31-2 0-7 0-10 0-32-2t-33-3q-34 0-98 14t-98 13q-24 0-53-6t-47-13-50-19q-76-31-113-58-53-41-89-106t-49-131-14-139z" horiz-adv-x="857.1" />
<glyph glyph-name="note" unicode="&#xe8b3;" d="m381 820q0-42 46-97t90-100 61-119-39-154q-20-34-26-16-2 6 0 16 10 18 6 56t-13 78-43 73-82 41l0-536q2-48-37-95t-105-71q-74-28-143-8t-89 76 20 115 116 85q86 30 158 4l0 652 80 0z" horiz-adv-x="582" />
<glyph glyph-name="note-beamed" unicode="&#xe8b4;" d="m206 714l534 116 0-704q2-42-30-81t-86-59q-64-24-110-8t-62 64q-18 48 7 97t85 73q52 20 106 10l0 376-354-82 0-490q0-42-32-81t-86-59q-64-22-109-7t-61 63q-18 48 6 97t84 73q54 20 108 10l0 592z" horiz-adv-x="740" />
<glyph glyph-name="music" unicode="&#xe8b5;" d="m600 800q42 0 71-29t29-71l0-700q0-40-29-70t-71-30l-500 0q-40 0-70 30t-30 70l0 700q0 42 30 71t70 29l500 0z m-110-476q32 44 23 92t-33 80-49 66-25 54l-60 0 0-368q-42 16-90-2-42-14-64-48t-12-64q12-32 53-45t85 1q88 30 88 98l0 262q36-6 55-32t18-52-3-42q-4-10 2-10 4 0 12 10z" horiz-adv-x="700" />
<glyph glyph-name="search" unicode="&#xe8b6;" d="m772 78q30-34 6-62l-46-46q-36-32-68 0l-190 190q-74-42-156-42-128 0-223 95t-95 223 90 219 218 91 224-95 96-223q0-88-46-162z m-678 358q0-88 68-156t156-68 151 63 63 153q0 88-68 155t-156 67-151-63-63-151z" horiz-adv-x="789" />
<glyph glyph-name="flashlight" unicode="&#xe8b7;" d="m807 706q62-62 85-130t-5-92l-134-134q-16-16-62-26t-96-4l-408-408q-18-18-57-6t-75 50q-36 36-49 74t5 56l408 408q-6 50 4 96t26 62l136 136q24 28 92 4t130-86z m-448-408q32-32 80 14 46 46 14 82-14 14-38 10t-44-24-23-43 11-39z m336 298q30-30 68-50t62-25 28-1q2 4-4 27t-26 60-50 67-66 50-59 26-27 2 1-28 25-62 48-66z" horiz-adv-x="902" />
<glyph glyph-name="mail" unicode="&#xe8b8;" d="m30 586q-32 18-28 40 2 14 26 14l846 0q38 0 20-32-8-14-24-22-14-6-192-102t-182-98q-16-10-46-10-28 0-46 10-4 2-182 98t-192 102z m850-100q20 10 20-10l0-368q0-16-17-32t-33-16l-800 0q-16 0-33 16t-17 32l0 368q0 20 20 10l384-200q18-10 46-10t46 10z" horiz-adv-x="900" />
<glyph glyph-name="heart" unicode="&#xe8b9;" d="m790 644q70-64 70-156t-70-158l-360-330-360 330q-70 66-70 158t70 156q62 58 151 58t153-58l56-52 58 52q62 58 150 58t152-58z" horiz-adv-x="860" />
<glyph glyph-name="heart-empty" unicode="&#xe8ba;" d="m790 642q70-64 70-156t-70-156l-360-330-360 330q-70 64-70 156t70 156q64 58 152 58t150-58l58-52 56 52q64 58 152 58t152-58z m-54-260q42 40 42 104 0 66-38 100-38 38-102 38-52 0-104-48l-104-92-106 92q-48 48-102 48-64 0-104-38-38-36-38-100 0-66 44-104l306-286z" horiz-adv-x="860" />
<glyph glyph-name="star" unicode="&#xe8bb;" d="m440 790l120-336 320 0-262-196 94-348-272 208-272-208 94 348-262 196 320 0z" horiz-adv-x="880" />
<glyph glyph-name="star-empty" unicode="&#xe8bc;" d="m880 454l-262-196 94-348-272 208-272-208 94 348-262 196 320 0 120 336 120-336 320 0z m-440-238l150-124-62 178 144 114-176-4-56 202-54-202-176 4 142-114-62-178z" horiz-adv-x="880" />
<glyph glyph-name="user" unicode="&#xe8bd;" d="m736 128q204-72 204-122l0-106-940 0 0 106q0 50 204 122 94 34 128 69t34 95q0 22-22 49t-32 73q-2 12-9 18t-14 8-14 17-9 43q0 16 5 26t9 12l4 4q-8 50-12 88-4 54 41 112t157 58 158-58 40-112l-12-88q18-8 18-42-2-28-9-43t-14-17-14-8-9-18q-8-48-31-74t-23-48q0-60 35-95t127-69z" horiz-adv-x="940" />
</font>
</defs>
</svg>
